За последнюю неделю опубликовано 63 новых материалов.
Инструкция новичку Путеводитель по форуму Прокси для Telegram Показать подсказки , это бомба!

Скачать Первые фильмы: В горах моё сердце / Сегодня увольнения не будет / Аптекарша (1958-1967) DVDRip-AVC от New-Team бесплатно через торрент

  • Поучаствуй (в качестве покупателя) в любых пяти совместных покупках (кроме завершённых и "Моментальных") и получи группу "Новичок" навсегда -> ссылка на раздел
  • Получай до 480 рублей за каждого приглашенного пользователя!
    представляем Вам очередное расширение партнерской программы, подробности описаны тут -> ссылка
  • 90% материалов доступно к скачиванию после простой регистрации!
    Если же ты хочешь скачивать материалы без требования оставлять отзывы то получи группу "Новичок", 10 способов повышения описаны тут -> ссылка
  • К сожалению количество битых ссылок растет и мы уже не можем их оперативно восстанавливать поэтому просим помощи у каждого нашего пользователя.
    С сегодняшнего дня, за каждую восстановленную ссылку мы заплатим Вам.
    Подробнее тут -> ссылка
  • Перенесем твои заслуги с другого ресурса!
    Мы понимаем как сложно прокачивать аккаунты на форумах, вроде раскачал аккаунт, а тут появляется ресурс в 100 раз круче но тоже с системой прокачки и снова качать аккаунт...
    Предлагаем вам перенести Ваши заслуги на другом подобном ресурсе к нам.
    Подробности описаны тут -> ссылка
  • Вы можете получать по 2.5% с каждой покупки и продажи на маркете! Подробности в теме Партнёрская программа
Если Вы не хотите скачивать, Вы всегда можетепосмотретьонлайн, просто нажмите кнопку ниже :

Открыть плеер

Torrent_Bot

Торрент-Бот
Бот форума
4 Окт 2016
82
186
20

Мы "В КОНТАКТЕ"

Страна: СССР
Производство: ВГИК

Жанр: военный, драма, комедия
Год выпуска: 1958-1967
Продолжительность: 01:39:45 (00:46:37 + 00:22:18 + 00:30:50)

Перевод: Не требуется
Cубтитры: нет
Оригинальная аудиодорожка: русский

Режиссер: Андрей Тарковский, Станислав Говорухин, Рустам Хамдамов

В ролях:
Сегодня увольнения не будет
Олег Борисов, Алексей Алексеев, Пётр Любешкин, Олег Мокшанцев, Владимир Маренков, Игорь Косухин, Леонид Куравлёв, Станислав Любшин, А. Смирнов, Алексей Добронравов, Нина Головина...
Аптекарша
Тамара Совчи, Александр Январёв, Борис Иванов, Юрий Катин-Ярцев...
В горах мое сердце
Вячеслав Кулешов, Алла Боброва, Людмила Назарова, Елена Соловей, Александр Костомолоцкий, Сергей Годзи, Пётр Репнин...

Описание:
Сегодня увольнения не будет (Андрей Тарковский, 1958, военный)
Во время земельных работ на улице Советской бригада коммунального хозяйства обнаруживает в земле немецкий склад боеприпасов, оставшийся со времен войны. 30 тонн взрывчатки пролежали в земле 15 лет. По инструкции разминировать нельзя - к ним и прикасаться опасно. Но и взрывать невозможно! - вокруг жилые кварталы. Дело поручают группе капитана Галича. К 10 утра следующего дня все население эвакуируют за черту города, а в зловещем котловане 7 человек начинают игру со смертью…
Аптекарша (Станислав Говорухин, 1964, драма)
Заштатный городишко спит непробудным сном. Не спит только молодая жена пожилого провизора Черномордика, содержателя аптеки.
Она ложилась уже три раза, но сон упрямо не идет к ней. Вдруг среди ночной тишины раздаются чьи-то шаги. Немного погодя за окном показываются две фигуры в белых офицерских кителях: одна большая и толстая, другая поменьше и тоньше... Через мгновение в аптеке раздается звонок, и взволнованная аптекарша открывает дверь офицерам. Молодой офицер Обтесов заказывает мятных лепешек на 15 копеек. А более опытный доктор затевает непринужденную беседу. И вот уже на столике появляется бутылка вина, и молоденькая аптекарша соглашается выпить капельку…
В горах мое сердце (Рустам Хамдамов, 1967, комедия)
В городе утро. Море, трамваи, на мостовой - пианино.
В город прибывает великий актер Мак-Грегор, песни которого заставляют трепетать сердца от горя и радости. Но сердце самого актера не здесь, а в далеких прекрасных горах. Великого актера приглашает на завтрак один из величайших поэтов мира. Сын поэта по этому случаю отправлен в лавку Козака за свежим батоном, фунтом сыра и бутылкой вина. Но в лавке Козака больше не отпускают в кредит. "Когда он получит деньги?" - спрашивает месье Козак у мальчика. "Никогда, - отвечает мальчик, - Нельзя быть великим и брать за это деньги!"





Источник: DVD9 R5
Качество видео: DVDRip-AVC
Формат видео: MKV

Видео: 680->761x572 (4:3), 25 fps, H264 ~ 1899 kbps avg, 0.195 bit/pixel
Аудио: 48 kHz, Dolby Digital AC3 2.0, 192 kbps

Раздача от:
MediaInfo
Общее
Полное имя : Pervye.filmy.1958-1967.DVDRip-AVC_[New-team]_by_AVP_Studio.mkv
Формат : Matroska
Версия формата : Version 2
Размер файла : 698 Мбайт
Продолжительность : 46 м. 37 с.
Общий поток : 2094 Кбит/сек
Дата кодирования : UTC 2017-08-05 14:33:16
Программа кодирования : mkvmerge v6.1.0 ('Old Devil') built on Mar 4 2013 09:10:42
Библиотека кодирования : libebml v1.3.0 + libmatroska v1.4.0

Видео
Идентификатор : 1
Формат : AVC
Формат/Информация : Advanced Video Codec
Профиль формата : [email protected]
Параметр CABAC формата : Да
Параметр RefFrames формата : 10 кадров
Идентификатор кодека : V_MPEG4/ISO/AVC
Продолжительность : 46 м. 37 с.
Битрейт : 1899 Кбит/сек
Ширина : 680 пикселей
Высота : 572 пикселя
Соотношение сторон : 4:3
Режим частоты кадров : Постоянный
Частота кадров : 25,000 кадров/сек
Цветовое пространство : YUV
Субдискретизация насыщенности : 4:2:0
Битовая глубина : 8 бит
Тип развёртки : Прогрессивная
Бит/(Пиксели*Кадры) : 0.195
Размер потока : 620 Мбайт (89%)
Библиотека кодирования : x264 core 130 r2273 b3065e6
Настройки программы : cabac=1 / ref=10 / deblock=1:-2:-1 / analyse=0x3:0x113 / me=umh / subme=10 / psy=1 / psy_rd=1.00:0.00 / mixed_ref=1 / me_range=32 / chroma_me=1 / trellis=2 / 8x8dct=1 / cqm=0 / deadzone=21,11 / fast_pskip=1 / chroma_qp_offset=-2 / threads=6 / lookahead_threads=1 / sliced_threads=0 / nr=0 / decimate=0 / interlaced=0 / bluray_compat=0 / constrained_intra=0 / bframes=8 / b_pyramid=2 / b_adapt=2 / b_bias=0 / direct=3 / weightb=1 / open_gop=0 / weightp=2 / keyint=250 / keyint_min=25 / scenecut=40 / intra_refresh=0 / rc=2pass / mbtree=0 / bitrate=1899 / ratetol=1.0 / qcomp=0.60 / qpmin=0 / qpmax=69 / qpstep=4 / cplxblur=20.0 / qblur=0.5 / ip_ratio=1.40 / pb_ratio=1.30 / aq=1:1.00
Default : Да
Forced : Нет

Аудио
Идентификатор : 2
Формат : AC-3
Формат/Информация : Audio Coding 3
Параметр Endianness формата : Big
Идентификатор кодека : A_AC3
Продолжительность : 46 м. 37 с.
Вид битрейта : Постоянный
Битрейт : 192 Кбит/сек
Каналы : 2 канала
Расположение каналов : Front: L R
Частота : 48,0 КГц
Частота кадров : 31,250 кадров/сек (1536 SPF)
Битовая глубина : 16 бит
Метод сжатия : С потерями
Размер потока : 64,0 Мбайт (9%)
Default : Да
Forced : Нет
Скриншоты
 

Вложения

  • 16,1 KB Просмотры: 1
    Личеров 0
    Сидеров 0
    Файлов 3
    Объем 1,5 GB

Привет!

Мы группа людей которые решили помочь другим в решении их проблем, а так же пользователям с поиском самых свежих и качественных инфопродуктов. За 4 с небольшим месяца мы создали этот форум на который заходят ежедневно тысячи человек и посещаемость постоянно растёт. Мы создали панель лицензирования для защиты PHP скриптов от воровства и SEO панель для мониторинга наших сайтов и выбора верной стратегии их развития. Мы надеемся что то что мы создали пригодится Вам и возможно Вы поможете нам развиваться и совершенствоваться вместе с Вами.

Статистика форума

Темы
412.156
Сообщения
471.194
Пользователи
91.618
Новый пользователь
iswartash

Приложения форума для iOS и Android


У ркн там нет власти ;)
Приватные разговоры
Помощь Пользователи
    Вы не присоединились ни к одной комнате.