За последнюю неделю опубликовано 50 новых материалов.
Инструкция новичку Путеводитель по форуму Прокси для Telegram Показать подсказки , это бомба!

Скачать Первобытный страх / Primal Fear (1996) BDRip 720p от Scarabey | P бесплатно через торрент

  • Поучаствуй (в качестве покупателя) в любых пяти совместных покупках (кроме завершённых и "Моментальных") и получи группу "Новичок" навсегда -> ссылка на раздел
  • Получай до 480 рублей за каждого приглашенного пользователя!
    представляем Вам очередное расширение партнерской программы, подробности описаны тут -> ссылка
  • 90% материалов доступно к скачиванию после простой регистрации!
    Если же ты хочешь скачивать материалы без требования оставлять отзывы то получи группу "Новичок", 10 способов повышения описаны тут -> ссылка
  • К сожалению количество битых ссылок растет и мы уже не можем их оперативно восстанавливать поэтому просим помощи у каждого нашего пользователя.
    С сегодняшнего дня, за каждую восстановленную ссылку мы заплатим Вам.
    Подробнее тут -> ссылка
  • Перенесем твои заслуги с другого ресурса!
    Мы понимаем как сложно прокачивать аккаунты на форумах, вроде раскачал аккаунт, а тут появляется ресурс в 100 раз круче но тоже с системой прокачки и снова качать аккаунт...
    Предлагаем вам перенести Ваши заслуги на другом подобном ресурсе к нам.
    Подробности описаны тут -> ссылка
  • Вы можете получать по 2.5% с каждой покупки и продажи на маркете! Подробности в теме Партнёрская программа
Если Вы не хотите скачивать, Вы всегда можетепосмотретьонлайн, просто нажмите кнопку ниже :

Открыть плеер

Torrent_Bot

Торрент-Бот
Бот форума
4 Окт 2016
93
160
20

Мы "В КОНТАКТЕ" =)





Год выпуска: 1996
Страна: США
Жанр: триллер, драма, криминал, детектив
Продолжительность: 02:10:27
Перевод 1: Профессиональный (многоголосый, закадровый) [Премьер Видео Фильм]
Перевод 2: Профессиональный (многоголосый, закадровый) [R5]
Перевод 3: Профессиональный (многоголосый, закадровый) [НТВ]
Субтитры: нет

Режиссер: Грегори Хоблит / Gregory Hoblit

В ролях: Ричард Гир, Эдвард Нортон, Лора Линни, Джон Махони, Элфри Вудард, Фрэнсис МакДорманд, Терри О’Куинн, Андре Брогер, Стивен Бауэр, Джо Спано

Описание: Страх, ложь и цинизм — основные темы судебной драмы. В убийстве чикагского архиепископа обвиняется молодой парень, который, несмотря на все улики, отрицает свою виновность и убеждает в этом своего адвоката.
Их отношения становятся все более напряженными и запутанными. В ходе судебного процесса сталкиваются бывшие любовники — прокурор Дженет Винейбл и адвокат Мартин Вейл.

Качество видео:BDRip 720p
Формат видео: MKV

Видео: 1280х720, 23.976 fps, AVC, ~7424 kbps avg
Аудио 1: 48 kHz, AC3 Dolby Digital, 3/2 (L,C,R,l,r) + LFE ch, ~256 kbps - Премьер Видео Фильм
Аудио 2: 48 kHz, AC3 Dolby Digital, 3/2 (L,C,R,l,r) + LFE ch, ~448 kbps - R5
Аудио 3: 48 kHz, AC3 Dolby Digital, 3/2 (L,C,R,l,r) + LFE ch, ~192 kbps - НТВ

Релиз от:

АНОНСЫ МОИХ РАЗДАЧ!


MI
Primal.Fear.1996.720p_BDRip_[scarabey.org].mkv
Format : Matroska
Format version : Version 2
File size : 7.74 GiB
Duration : 2 h 10 min
Overall bit rate : 8 489 kb/s
Movie name : Primal Fear 1996 720p BluRay DD5.1 2Audio x264-HDS
Encoded date : UTC 2020-07-27 18:20:42
Writing application : mkvmerge v7.8.0 ('River Man') 32bit built on Apr 3 2015 12:11:22
Writing library : libebml v1.3.1 + libmatroska v1.4.2

Video
ID : 1
Format : AVC
Format/Info : Advanced Video Codec
Format profile : [email protected]
Format settings : CABAC / 9 Ref Frames
Format settings, CABAC : Yes
Format settings, Reference frames : 9 frames
Codec ID : V_MPEG4/ISO/AVC
Duration : 2 h 10 min
Bit rate : 7 424 kb/s
Width : 1 280 pixels
Height : 720 pixels
Display aspect ratio : 16:9
Frame rate mode : Constant
Frame rate : 23.976 (24000/1001) FPS
Color space : YUV
Chroma subsampling : 4:2:0
Bit depth : 8 bits
Scan type : Progressive
Bits/(Pixel*Frame) : 0.336
Stream size : 6.77 GiB (87%)
Title : [email protected]
Writing library : x264 core 148 r2699+6+41 29a38aa Yuuki [[email protected]:2:0 X86_64][GCC 5.3.0]
Encoding settings : cabac=1 / ref=9 / deblock=1:-3:-3 / analyse=0x3:0x113 / me=umh / subme=11 / psy=1 / fade_compensate=0.00 / psy_rd=1.00:0.05 / mixed_ref=1 / me_range=32 / chroma_me=1 / trellis=2 / 8x8dct=1 / cqm=0 / deadzone=21,11 / fast_pskip=0 / chroma_qp_offset=-2 / threads=32 / lookahead_threads=5 / sliced_threads=0 / nr=0 / decimate=1 / interlaced=0 / bluray_compat=0 / constrained_intra=0 / fgo=0 / bframes=8 / b_pyramid=2 / b_adapt=2 / b_bias=0 / direct=3 / weightb=1 / open_gop=0 / weightp=2 / keyint=250 / keyint_min=23 / scenecut=40 / intra_refresh=0 / rc=crf / mbtree=0 / crf=18.0000 / qcomp=0.60 / qpmin=0:0:0 / qpmax=69:69:69 / qpstep=4 / ip_ratio=1.40 / pb_ratio=1.30 / aq=3:0.90
Default : Yes
Forced : No

Audio #1
ID : 2
Format : AC-3
Format/Info : Audio Coding 3
Commercial name : Dolby Digital
Codec ID : A_AC3
Duration : 2 h 10 min
Bit rate mode : Constant
Bit rate : 256 kb/s
Channel(s) : 2 channels
Channel layout : L R
Sampling rate : 48.0 kHz
Frame rate : 31.250 FPS (1536 SPF)
Compression mode : Lossy
Stream size : 239 MiB (3%)
Title : MVO - Премьер Видео Фильм
Language : Russian
Service kind : Complete Main
Default : Yes
Forced : Yes

Audio #2
ID : 3
Format : AC-3
Format/Info : Audio Coding 3
Commercial name : Dolby Digital
Codec ID : A_AC3
Duration : 2 h 10 min
Bit rate mode : Constant
Bit rate : 448 kb/s
Channel(s) : 6 channels
Channel layout : L R C LFE Ls Rs
Sampling rate : 48.0 kHz
Frame rate : 31.250 FPS (1536 SPF)
Compression mode : Lossy
Stream size : 418 MiB (5%)
Title : MVO - R5
Language : Russian
Service kind : Complete Main
Default : No
Forced : No

Audio #3
ID : 4
Format : AC-3
Format/Info : Audio Coding 3
Commercial name : Dolby Digital
Codec ID : A_AC3
Duration : 2 h 10 min
Bit rate mode : Constant
Bit rate : 192 kb/s
Channel(s) : 2 channels
Channel layout : L R
Sampling rate : 48.0 kHz
Frame rate : 31.250 FPS (1536 SPF)
Compression mode : Lossy
Stream size : 179 MiB (2%)
Title : MVO - НТВ
Language : Russian
Service kind : Complete Main
Default : No
Forced : No

Menu
00:00:00.000 : en:00:00:00.000
00:01:39.099 : en:00:01:39.099
00:08:00.438 : en:00:08:00.438
00:10:00.058 : en:00:10:00.058
00:12:48.309 : en:00:12:48.309
00:17:45.940 : en:00:17:45.940
00:24:19.500 : en:00:24:19.500
00:31:55.705 : en:00:31:55.705
00:34:31.903 : en:00:34:31.903
00:35:36.343 : en:00:35:36.343
00:39:44.090 : en:00:39:44.090
00:47:32.058 : en:00:47:32.058
00:52:55.839 : en:00:52:55.839
00:57:29.905 : en:00:57:29.905
01:00:14.402 : en:01:00:14.402
01:03:38.690 : en:01:03:38.690
01:11:51.974 : en:01:11:51.974
01:19:44.822 : en:01:19:44.822
01:24:07.459 : en:01:24:07.459
01:30:25.962 : en:01:30:25.962
01:35:58.586 : en:01:35:58.586
01:42:41.155 : en:01:42:41.155
01:49:05.956 : en:01:49:05.956
01:55:05.941 : en:01:55:05.941
01:59:48.556 : en:01:59:48.556
02:06:41.594 : en:02:06:41.594
 

Вложения

  • 39,6 KB Просмотры: 0
    Личеров 0
    Сидеров 0
    Файлов 1
    Объем 7,7 GB

Привет!

Мы группа людей которые решили помочь другим в решении их проблем, а так же пользователям с поиском самых свежих и качественных инфопродуктов. За 4 с небольшим месяца мы создали этот форум на который заходят ежедневно тысячи человек и посещаемость постоянно растёт. Мы создали панель лицензирования для защиты PHP скриптов от воровства и SEO панель для мониторинга наших сайтов и выбора верной стратегии их развития. Мы надеемся что то что мы создали пригодится Вам и возможно Вы поможете нам развиваться и совершенствоваться вместе с Вами.

Статистика форума

Темы
406.640
Сообщения
465.116
Пользователи
84.568
Новый пользователь
Max007

Приложения форума для iOS и Android


У ркн там нет власти ;)
Приватные разговоры
Помощь Пользователи
    Вы не присоединились ни к одной комнате.