За последнюю неделю опубликовано 57 новых материалов.
Инструкция новичку Путеводитель по форуму Прокси для Telegram Показать подсказки , это бомба!

Скачать Первая ведьма / The Wretched (2019) BDRip 1080p | L2 бесплатно через торрент

  • Поучаствуй (в качестве покупателя) в любых пяти совместных покупках (кроме завершённых и "Моментальных") и получи группу "Новичок" навсегда -> ссылка на раздел
  • Получай до 480 рублей за каждого приглашенного пользователя!
    представляем Вам очередное расширение партнерской программы, подробности описаны тут -> ссылка
  • 90% материалов доступно к скачиванию после простой регистрации!
    Если же ты хочешь скачивать материалы без требования оставлять отзывы то получи группу "Новичок", 10 способов повышения описаны тут -> ссылка
  • К сожалению количество битых ссылок растет и мы уже не можем их оперативно восстанавливать поэтому просим помощи у каждого нашего пользователя.
    С сегодняшнего дня, за каждую восстановленную ссылку мы заплатим Вам.
    Подробнее тут -> ссылка
  • Перенесем твои заслуги с другого ресурса!
    Мы понимаем как сложно прокачивать аккаунты на форумах, вроде раскачал аккаунт, а тут появляется ресурс в 100 раз круче но тоже с системой прокачки и снова качать аккаунт...
    Предлагаем вам перенести Ваши заслуги на другом подобном ресурсе к нам.
    Подробности описаны тут -> ссылка
  • Вы можете получать по 2.5% с каждой покупки и продажи на маркете! Подробности в теме Партнёрская программа
Если Вы не хотите скачивать, Вы всегда можетепосмотретьонлайн, просто нажмите кнопку ниже :

Открыть плеер

Torrent_Bot

Торрент-Бот
Бот форума
4 Окт 2016
92
163
20


Информация о фильме
Название: Первая ведьма
Оригинальное название: The Wretched
Год выхода: 2019
Жанр: Ужасы, триллер
Режиссер: Бретт Пирс, Дрю Т. Пирс
В ролях: Джон-Пол Ховард, Пайпер Курда, Джеймисон Джонс, Ази Тесфай, Цара Малер, Кевин Бигли, Габриэла Квезада Блумгарден, Ричард Эллис, Блейн Крокарелл, Джуда Эбнер Пол

О фильме:
17-летний Бэн, переживая из-за разлада родителей, приезжает на лето к отцу провести время на природе и подработать на пристани. В соседнем домике проживает молодая пара с двумя детьми, и однажды после лесной прогулки они приводят с собой древнее зло. Бен сразу же замечает, что по соседству начало твориться нечто странное, но отец его даже слушать не хочет, а новая знакомая Меллори считает, что всему можно найти рациональное объяснение.




Страна: США
Студия: Cailleach Productions
Продолжительность: 01:35:31
Перевод: Любительский двухголосый | LakeFilms
*** Присутствует ненормативная лексика!

Файл
Кодек: x.264
Качество: BDRip 1080p
Видео: MPEG-4 AVC, 15.5 Mбит/с, 1920x804, 23.976 кадр/с
Аудио #1: Русский (АС3, 2 ch, 256 Кбит/с, 48.0 KHz) Любительский (двухголосый, закадровый) LakeFilms
Аудио #2: Английский (АС3, 6 ch, 640 Кбит/с, 48.0 KHz)
Субтитры: Русские (Forced, Full, SDH (Khotya-303), английские
► Без Рекламы!
Трейлер
MediaInfo
Источник: The.Wretched.2019.1080p.BluRay.x264.DTS-MT
General
Unique ID : 184178187982730041034674424222459189145 (0x8A8F6DC1811D50DAA036D39E7C815799)
Complete name : The.Wretched.2019.BDRip.1080p.mkv
Format : Matroska
Format version : Version 4
File size : 10.9 GiB
Duration : 1 h 35 min
Overall bit rate : 16.4 Mb/s
Encoded date : UTC 2020-08-20 07:28:28
Writing application : mkvmerge v7.1.0 ('Good Love') 64bit built on Jul 27 2014 13:06:55
Writing library : libebml v1.3.0 + libmatroska v1.4.1

Video
ID : 1
Format : AVC
Format/Info : Advanced Video Codec
Format profile : [email protected]
Format settings : CABAC / 5 Ref Frames
Format settings, CABAC : Yes
Format settings, Reference fra : 5 frames
Codec ID : V_MPEG4/ISO/AVC
Duration : 1 h 35 min
Bit rate : 15.5 Mb/s
Width : 1 920 pixels
Height : 804 pixels
Display aspect ratio : 2.40:1
Frame rate mode : Constant
Frame rate : 23.976 (24000/1001) FPS
Color space : YUV
Chroma subsampling : 4:2:0
Bit depth : 8 bits
Scan type : Progressive
Bits/(Pixel*Frame) : 0.418
Stream size : 10.3 GiB (95%)
Writing library : x264 core 157 r2938 2b00a84 [email protected] Mod
Encoding settings : cabac=1 / ref=5 / deblock=1:-3:-3 / analyse=0x3:0x133 / me=umh / subme=10 / psy=1 / psy_rd=1.05:0.00 / mixed_ref=1 / me_range=32 / chroma_me=1 / trellis=2 / 8x8dct=1 / cqm=0 / deadzone=21,11 / fast_pskip=0 / chroma_qp_offset=-2 / threads=12 / lookahead_threads=2 / sliced_threads=0 / nr=0 / decimate=0 / interlaced=0 / bluray_compat=0 / constrained_intra=0 / bframes=8 / b_pyramid=2 / b_adapt=2 / b_bias=0 / direct=3 / weightb=1 / open_gop=0 / weightp=2 / keyint=250 / keyint_min=24 / scenecut=40 / intra_refresh=0 / rc_lookahead=250 / rc=crf / mbtree=0 / crf=16.8 / qcomp=0.60 / qpmin=0 / qpmax=69 / qpstep=4 / vbv_maxrate=62500 / vbv_bufsize=78125 / crf_max=0.0 / nal_hrd=none / filler=0 / ip_ratio=1.30 / pb_ratio=1.20 / aq=3:0.80
Language : English
Default : Yes
Forced : No
Color range : Limited
Color primaries : BT.709
Matrix coefficients : BT.709

Audio #1
ID : 2
Format : AC-3
Format/Info : Audio Coding 3
Commercial name : Dolby Digital
Codec ID : A_AC3
Duration : 1 h 35 min
Bit rate mode : Constant
Bit rate : 256 kb/s
Channel(s) : 2 channels
Channel layout : L R
Sampling rate : 48.0 kHz
Frame rate : 31.250 FPS (1536 SPF)
Compression mode : Lossy
Stream size : 175 MiB (2%)
Title : LakeFilms
Language : Russian
Service kind : Complete Main
Default : Yes
Forced : No

Audio #2
ID : 3
Format : AC-3
Format/Info : Audio Coding 3
Commercial name : Dolby Digital
Codec ID : A_AC3
Duration : 1 h 35 min
Bit rate mode : Constant
Bit rate : 640 kb/s
Channel(s) : 6 channels
Channel layout : L R C LFE Ls Rs
Sampling rate : 48.0 kHz
Frame rate : 31.250 FPS (1536 SPF)
Compression mode : Lossy
Stream size : 437 MiB (4%)
Language : English
Service kind : Complete Main
Default : No
Forced : No

Text #1
ID : 4
Format : UTF-8
Codec ID : S_TEXT/UTF8
Codec ID/Info : UTF-8 Plain Text
Duration : 1 h 17 min
Bit rate : 1 b/s
Count of elements : 14
Stream size : 635 Bytes (0%)
Title : Forced
Language : Russian
Default : Yes
Forced : No

Text #2
ID : 5
Format : UTF-8
Codec ID : S_TEXT/UTF8
Codec ID/Info : UTF-8 Plain Text
Duration : 1 h 30 min
Bit rate : 56 b/s
Count of elements : 860
Stream size : 37.4 KiB (0%)
Title : Full
Language : Russian
Default : No
Forced : No

Text #3
ID : 6
Format : UTF-8
Codec ID : S_TEXT/UTF8
Codec ID/Info : UTF-8 Plain Text
Duration : 1 h 30 min
Bit rate : 67 b/s
Count of elements : 1136
Stream size : 45.1 KiB (0%)
Title : SDH
Language : Russian
Default : No
Forced : No

Text #4
ID : 7
Format : UTF-8
Codec ID : S_TEXT/UTF8
Codec ID/Info : UTF-8 Plain Text
Duration : 1 h 30 min
Bit rate : 32 b/s
Count of elements : 867
Stream size : 21.6 KiB (0%)
Language : English
Default : No
Forced : No

Text #5
ID : 8
Format : UTF-8
Codec ID : S_TEXT/UTF8
Codec ID/Info : UTF-8 Plain Text
Duration : 1 h 33 min
Bit rate : 36 b/s
Count of elements : 1124
Stream size : 25.1 KiB (0%)
Title : SDH
Language : English
Default : No
Forced : No

Menu
00:00:00.000 : en:Chapter 01
00:05:38.463 : en:Chapter 02
00:14:55.812 : en:Chapter 03
00:21:28.078 : en:Chapter 04
00:30:23.613 : en:Chapter 05
00:37:31.583 : en:Chapter 06
00:45:46.327 : en:Chapter 07
00:53:09.436 : en:Chapter 08
01:00:41.847 : en:Chapter 09
01:08:16.634 : en:Chapter 10
01:19:18.128 : en:Chapter 11
01:31:01.665 : en:Chapter 12
Скриншоты
 

Вложения

  • 28,2 KB Просмотры: 0
    Личеров 0
    Сидеров 0
    Файлов 1
    Объем 10,9 GB

Привет!

Мы группа людей которые решили помочь другим в решении их проблем, а так же пользователям с поиском самых свежих и качественных инфопродуктов. За 4 с небольшим месяца мы создали этот форум на который заходят ежедневно тысячи человек и посещаемость постоянно растёт. Мы создали панель лицензирования для защиты PHP скриптов от воровства и SEO панель для мониторинга наших сайтов и выбора верной стратегии их развития. Мы надеемся что то что мы создали пригодится Вам и возможно Вы поможете нам развиваться и совершенствоваться вместе с Вами.

Статистика форума

Темы
406.698
Сообщения
465.162
Пользователи
84.789
Новый пользователь
Setis

Приложения форума для iOS и Android


У ркн там нет власти ;)
Приватные разговоры
Помощь Пользователи
    Вы не присоединились ни к одной комнате.