За последнюю неделю опубликовано 29 новых материалов.
Инструкция новичку Путеводитель по форуму Прокси для Telegram Показать подсказки , это бомба!

Скачать Первая реформатская церковь / First Reformed (2017) BDRemux 1080р | Sub бесплатно через торрент

  • Поучаствуй (в качестве покупателя) в любых пяти совместных покупках (кроме завершённых и "Моментальных") и получи группу "Новичок" навсегда -> ссылка на раздел
  • Получай до 480 рублей за каждого приглашенного пользователя!
    представляем Вам очередное расширение партнерской программы, подробности описаны тут -> ссылка
  • 90% материалов доступно к скачиванию после простой регистрации!
    Если же ты хочешь скачивать материалы без требования оставлять отзывы то получи группу "Новичок", 10 способов повышения описаны тут -> ссылка
  • К сожалению количество битых ссылок растет и мы уже не можем их оперативно восстанавливать поэтому просим помощи у каждого нашего пользователя.
    С сегодняшнего дня, за каждую восстановленную ссылку мы заплатим Вам.
    Подробнее тут -> ссылка
  • Перенесем твои заслуги с другого ресурса!
    Мы понимаем как сложно прокачивать аккаунты на форумах, вроде раскачал аккаунт, а тут появляется ресурс в 100 раз круче но тоже с системой прокачки и снова качать аккаунт...
    Предлагаем вам перенести Ваши заслуги на другом подобном ресурсе к нам.
    Подробности описаны тут -> ссылка
  • Вы можете получать по 2.5% с каждой покупки и продажи на маркете! Подробности в теме Партнёрская программа
Если Вы не хотите скачивать, Вы всегда можетепосмотретьонлайн, просто нажмите кнопку ниже :

Открыть плеер

Torrent_Bot

Торрент-Бот
Бот форума
4 Окт 2016
96
155
20
Информация о фильме
Название: Первая реформатская церковь
Оригинальное название: First Reformed
Год выхода: 2017
Жанр: триллер, драма
Режиссер: Пол Шредер
В ролях: Итан Хоук, Аманда Сайфред, Седрик Кайлз, Виктория Хилл, Филип Эттингер, Майкл Гэстон, Билл Хоуг, Вэн Хэнсис, Кристин Вильянуэва, Гэри Ли Махмуд, Кристина Алабадо, Сэтчел Иден Белл, Фрэнк Мюррей, Рональд Пит, Сью Жан Ким

О фильме: Преподобный Толлер, страдающий от потери сына в Ираке и последовавшего развода, ищет утешения под сводами церкви и в алкоголе. Молодая прихожанка Мэри обращается к нему с просьбой поговорить с её мужем, экологом-активистом. А когда тот кончает жизнь самоубийством, Толлер никак не может выкинуть из головы беседу с ним и начинает читать в интернете про загрязнение окружающей среды.



Страна: США
Продолжительность: 01:53:14
Перевод: субтитры
Субтитры: русские (FOCS), английские
Оригинальная аудиодорожка: английский

Файл
Качество: BDRemux 1080р
Видео: MPEG-4 AVC Video / 18729 kbps / 1080p / 23.976 fps / 16:9 / High Profile 4.1
Звук: DTS-HD Master Audio / 5.1 / 48 kHz / 3071 kbps / 24-bit / English

Скриншоты
MediaInfo
General
Unique ID : 84351325159382085695392506928488735877 (0x3F75796B8C9549D567ECAA2ABE0F6485)
Complete name : First.Reformed.2017.Remux.SUB.mkv
Format : Matroska
Format version : Version 4 / Version 2
File size : 17.2 GiB
Duration : 1 h 53 min
Overall bit rate mode : Variable
Overall bit rate : 21.7 Mb/s
Movie name : First.Reformed.2017.1080p.BluRay.REMUX.AVC.DTS-HD.MA.5.1-FGT
Encoded date : UTC 2018-08-20 03:31:24
Writing application : mkvmerge v20.0.0 ('I Am The Sun') 64-bit
Writing library : libebml v1.3.5 + libmatroska v1.4.8

Video
ID : 1
Format : AVC
Format/Info : Advanced Video Codec
Format profile : [email protected]
Format settings : CABAC / 4 Ref Frames
Format settings, CABAC : Yes
Format settings, RefFrames : 4 frames
Codec ID : V_MPEG4/ISO/AVC
Duration : 1 h 53 min
Bit rate mode : Variable
Bit rate : 18.6 Mb/s
Maximum bit rate : 37.0 Mb/s
Width : 1 920 pixels
Height : 1 080 pixels
Display aspect ratio : 16:9
Frame rate mode : Constant
Frame rate : 23.976 (24000/1001) FPS
Color space : YUV
Chroma subsampling : 4:2:0
Bit depth : 8 bits
Scan type : Progressive
Bits/(Pixel*Frame) : 0.375
Stream size : 14.7 GiB (86%)
Language : English
Default : Yes
Forced : No

Audio
ID : 2
Format : DTS
Format/Info : Digital Theater Systems
Format profile : MA / Core
Codec ID : A_DTS
Duration : 1 h 53 min
Bit rate mode : Variable / Constant
Bit rate : 3 072 kb/s / 1 509 kb/s
Channel(s) : 6 channels
Channel positions : Front: L C R, Side: L R, LFE
Sampling rate : 48.0 kHz
Frame rate : 93.750 FPS (512 SPF)
Bit depth : 24 bits
Compression mode : Lossless / Lossy
Stream size : 2.43 GiB (14%)
Language : English
Default : Yes
Forced : No

Text #1
ID : 3
Format : UTF-8
Codec ID : S_TEXT/UTF8
Codec ID/Info : UTF-8 Plain Text
Duration : 1 h 48 min
Bit rate : 95 b/s
Count of elements : 1455
Stream size : 75.9 KiB (0%)
Language : Russian
Default : Yes
Forced : Yes

Text #2
ID : 4
Format : UTF-8
Codec ID : S_TEXT/UTF8
Codec ID/Info : UTF-8 Plain Text
Duration : 1 h 45 min
Bit rate : 59 b/s
Count of elements : 1445
Stream size : 46.5 KiB (0%)
Language : English
Default : No
Forced : No

Menu
00:00:00.000 : en:Chapter 01
00:07:32.743 : en:Chapter 02
00:08:48.361 : en:Chapter 03
00:21:52.728 : en:Chapter 04
00:30:52.725 : en:Chapter 05
00:36:41.949 : en:Chapter 06
00:41:54.261 : en:Chapter 07
00:50:02.958 : en:Chapter 08
00:55:18.481 : en:Chapter 09
01:04:40.668 : en:Chapter 10
01:10:59.922 : en:Chapter 11
01:16:19.241 : en:Chapter 12
01:25:24.119 : en:Chapter 13
01:30:49.485 : en:Chapter 14
01:38:48.964 : en:Chapter 15
01:45:22.524 : en:Chapter 16
 

Вложения

  • 86,8 KB Просмотры: 1
    Личеров 0
    Сидеров 0
    Файлов 1
    Объем 17,2 GB

Привет!

Мы группа людей которые решили помочь другим в решении их проблем, а так же пользователям с поиском самых свежих и качественных инфопродуктов. За 4 с небольшим месяца мы создали этот форум на который заходят ежедневно тысячи человек и посещаемость постоянно растёт. Мы создали панель лицензирования для защиты PHP скриптов от воровства и SEO панель для мониторинга наших сайтов и выбора верной стратегии их развития. Мы надеемся что то что мы создали пригодится Вам и возможно Вы поможете нам развиваться и совершенствоваться вместе с Вами.

Статистика форума

Темы
406.518
Сообщения
464.549
Пользователи
82.836
Новый пользователь
Qwertyuio

Приложения форума для iOS и Android


У ркн там нет власти ;)
Приватные разговоры
Помощь Пользователи
    Вы не присоединились ни к одной комнате.