За последнюю неделю опубликовано 91 новых материалов.
Инструкция новичку Путеводитель по форуму Прокси для Telegram Показать подсказки , это бомба!

Скачать Перепутье / Z-Kai: Cross Road [ONA] [01 из 01] (2014) WEBRip 1080p | L2 бесплатно через торрент

  • Поучаствуй (в качестве покупателя) в любых пяти совместных покупках (кроме завершённых и "Моментальных") и получи группу "Новичок" навсегда -> ссылка на раздел
  • Получай до 480 рублей за каждого приглашенного пользователя!
    представляем Вам очередное расширение партнерской программы, подробности описаны тут -> ссылка
  • 90% материалов доступно к скачиванию после простой регистрации!
    Если же ты хочешь скачивать материалы без требования оставлять отзывы то получи группу "Новичок", 10 способов повышения описаны тут -> ссылка
  • К сожалению количество битых ссылок растет и мы уже не можем их оперативно восстанавливать поэтому просим помощи у каждого нашего пользователя.
    С сегодняшнего дня, за каждую восстановленную ссылку мы заплатим Вам.
    Подробнее тут -> ссылка
  • Перенесем твои заслуги с другого ресурса!
    Мы понимаем как сложно прокачивать аккаунты на форумах, вроде раскачал аккаунт, а тут появляется ресурс в 100 раз круче но тоже с системой прокачки и снова качать аккаунт...
    Предлагаем вам перенести Ваши заслуги на другом подобном ресурсе к нам.
    Подробности описаны тут -> ссылка
  • Вы можете получать по 2.5% с каждой покупки и продажи на маркете! Подробности в теме Партнёрская программа

Torrent_Bot

Торрент-Бот
Бот форума
4 Окт 2016
102
152
20
92d34d24f234b80856a678f1c9d23065.png

Информация о фильме
Название: Перепутье
Оригинальное название: Z-Kai: Cross Road
Жанр: повседневность, школа
Режиссёр: Синкай Макото

Описание:

Двухминутная музыкальная зарисовка Cross Road снята режиссёром Макото Синкаем по заказу компании Z-Kai, которая занимается подготовкой абитуриентов в японские вузы. Герои фильма — старшеклассница Михо, живущая на отдалённом острове, где не действуют очные подготовительные курсы, и её ровесник Сёта — он, хоть и житель мегаполиса, после школьных уроков подрабатывает допоздна и на традиционные курсы просто не успевает. Для обоих дистанционные занятия по программе Z-Kai стали единственным способом серьёзно подготовиться к вступительным экзаменам в университет.

Информационные ссылки:World Art || MAL

Страна: Япония
Премьера: 25.02.2014
Тип/Продолжительность: ONA (1 эп.), 2 мин.

Студии: d1867dcd68549d4934989511b92b8ada.png и 182fcc8a0be5c768e10bf65bc27772c7.png

Субтитры:
русские, софтсаб, внешним файлом от Shift & Timecraft
Перевод: Evafan;
Редактура: AleX_MytH;
Оформление: matoi-kun

английские, софтсаб, в контейнере

Озвучка:
Любительская двухголосая (муж./жен.), внешним файлом от Mistake & Kira Ksyll (OpenDub)
Любительская двухголосая (муж./жен.), внешним файлом от Erinant & Kashi (Animedia)
Любительская двухголосая (муж./жен.), внешним файлом от FaSt & Milirina

Файл
Качество: WEBRip | Тип видео: Без хардсаба | Формат: MP4
Видео: 1920x1080, 24.000 f/s, H.264, 8 bits, 2 712 Kb/s
Аудио JAP: 44.1 KHz, AAC, 2 channels, 126 Kb/s
Аудио RUS: 48.0 KHz, AAC, 2 channels, 192 Kb/s
Аудио RUS 2: 48.0 KHz, AAC, 2 channels, 192 Kb/s
Аудио RUS 3: 44.1 KHz, AAC, 2 channels, 128 Kb/s

Подробные тех. данные
Код:
Общее
Полное имя : D:[Flash-Ost]AnimeПерепутье [Cross Road]CROSS ROAD ONA (YT 1920x1080 x264 AAC).mp4
Формат : MPEG-4
Профиль формата : Base Media
Идентификатор кодека : isom
Размер файла : 40,4 Мбайт
Продолжительность : 1 м. 59 с.
Общий поток : 2842 Кбит/сек
Программа кодирования : Lavf55.12.100
Видео
Идентификатор : 1
Формат : AVC
Формат/Информация : Advanced Video Codec
Профиль формата : High@L4.0
Параметр CABAC формата : Да
Параметр ReFrames формата : 2 кадры
Параметры GOP формата : M=3, N=12
Идентификатор кодека : avc1
Идентификатор кодека/Информация : Advanced Video Coding
Продолжительность : 1 м. 59 с.
Вид битрейта : Переменный
Битрейт : 2712 Кбит/сек
Ширина : 1920 пикс.
Высота : 1080 пикс.
Соотношение сторон : 16:9
Режим частоты кадров : Переменный
Частота кадров : 24,000 кадр/сек
Минимальная частота кадров : 24,000 кадр/сек
Максимальная частота кадров : 24,390 кадр/сек
Цветовое пространство : YUV
Подвыборка цветности : 4:2:0
Битовая глубина : 8 бит
Тип развёртки : Прогрессивная
Бит/(Пиксели*Кадры) : 0.054
Размер потока : 38,5 Мбайт (95%)
Аудио
Идентификатор : 2
Формат : AAC
Формат/Информация : Advanced Audio Codec
Профиль формата : LC
Идентификатор кодека : 40
Продолжительность : 1 м. 59 с.
Вид битрейта : Постоянный
Битрейт : 126 Кбит/сек
Канал(ы) : 2 канала(ов)
Расположение каналов : Front: L R
Частота : 44,1 КГц
Метод сжатия : С потерями
Размер потока : 1,78 Мбайт (4%)
Текст
Идентификатор : 3
Формат : Timed text
Режим смешивания : sbtl
Идентификатор кодека : tx3g
Продолжительность : 1 м. 55 с.
Вид битрейта : Переменный
Битрейт : 70 бит/сек
Размер потока : 1006 байт (0%)
Язык : English
Скриншоты
20570ecc9f62c85b5213438dc8a8a1b0.jpeg5a3590409c379c4a957cab95f56f75d0.jpeg076e9b07e90a4e463a709470ca8c2efb.jpegeac82a69689158c8213c4bcc52edad73.jpeg
 

Вложения

Привет!

Мы группа людей которые решили помочь другим в решении их проблем, а так же пользователям с поиском самых свежих и качественных инфопродуктов. За 4 с небольшим месяца мы создали этот форум на который заходят ежедневно тысячи человек и посещаемость постоянно растёт. Мы создали панель лицензирования для защиты PHP скриптов от воровства и SEO панель для мониторинга наших сайтов и выбора верной стратегии их развития. Мы надеемся что то что мы создали пригодится Вам и возможно Вы поможете нам развиваться и совершенствоваться вместе с Вами.

Статистика форума

Темы
404.589
Сообщения
461.467
Пользователи
80.284
Новый пользователь
Zuhra

Приложения форума для iOS и Android


У ркн там нет власти ;)
Приватные разговоры
Помощь Пользователи
    Вы не присоединились ни к одной комнате.