За последнюю неделю опубликовано 30 новых материалов.
Инструкция новичку Путеводитель по форуму Прокси для Telegram Показать подсказки , это бомба!

Скачать Перед пожаром / Before the Fire (2020) WEB-DLRip-AVC | L1 бесплатно через торрент

  • Поучаствуй (в качестве покупателя) в любых пяти совместных покупках (кроме завершённых и "Моментальных") и получи группу "Новичок" навсегда -> ссылка на раздел
  • Получай до 480 рублей за каждого приглашенного пользователя!
    представляем Вам очередное расширение партнерской программы, подробности описаны тут -> ссылка
  • 90% материалов доступно к скачиванию после простой регистрации!
    Если же ты хочешь скачивать материалы без требования оставлять отзывы то получи группу "Новичок", 10 способов повышения описаны тут -> ссылка
  • К сожалению количество битых ссылок растет и мы уже не можем их оперативно восстанавливать поэтому просим помощи у каждого нашего пользователя.
    С сегодняшнего дня, за каждую восстановленную ссылку мы заплатим Вам.
    Подробнее тут -> ссылка
  • Перенесем твои заслуги с другого ресурса!
    Мы понимаем как сложно прокачивать аккаунты на форумах, вроде раскачал аккаунт, а тут появляется ресурс в 100 раз круче но тоже с системой прокачки и снова качать аккаунт...
    Предлагаем вам перенести Ваши заслуги на другом подобном ресурсе к нам.
    Подробности описаны тут -> ссылка
  • Вы можете получать по 2.5% с каждой покупки и продажи на маркете! Подробности в теме Партнёрская программа
Если Вы не хотите скачивать, Вы всегда можетепосмотретьонлайн, просто нажмите кнопку ниже :

Открыть плеер

Torrent_Bot

Торрент-Бот
Бот форума
4 Окт 2016
93
160
20



Информация о фильме
Название: Перед пожаром
Оригинальное название: Before the Fire
Год выхода: 2020
Жанр: Триллер, фантастика, боевик
Режиссер: Чарли Бюхлер
В ролях: Дженна Линг, Джексон Дэвис, Райан Виджилант, Чарльз Хаббелл, Дакота Моррисей, Тим Дрисколл, М.Дж. Карми, Лиза Гудман, Джон Тэг, Мэри Бейдлер Гарен, Эндрю Марксман, Мартин Мика

О фильме:
Пандемия неизвестного вируса парализует жизнь страны. Крупные города закрыты на карантин, передвижение между населенными пунктами строго регламентируется. Известная актриса принимает не легкое решение покинуть мегаполис и вернуться в родной провинциальный городок к семье, которая ее ненавидит. Шум большого города сменяется на тишину захолустья с его размеренным ритмом жизни. Но угроза для Авы приходит не со стороны вируса, а из прошлого, возвращая в ее жизнь человека, который пытается разрушить ее мир.




Страна: США
Продолжительность: 01:30:43
Перевод: Любительский одноголосый | datynet

Файл
Кодек: MPEG-4 AVC
Качество: WEB-DLRip-AVC
Видео: MPEG-4 AVC, 1700 Кбит/с, 720x308
Звук: MP3, 2 ch, 192 Кбит/с
Субтитры: нет



МедиаИнфо
General
Unique ID : 168339784337118980071556363279469075741 (0x7EA5102A829EA6DA93A85297BE0F5D1D)
Complete name : G:Before the Fire.2020.HDRip.mkv
Format : Matroska
Format version : Version 4
File size : 1.18 GiB
Duration : 1 h 30 min
Overall bit rate : 1 858 kb/s
Encoded date : UTC 2020-08-14 12:14:18 / UTC 2020-08-14T04:21:07Z
Writing application : mkvmerge v42.0.0 ('Overtime') 64-bit
Writing library : libebml v1.3.10 + libmatroska v1.5.2 / Lavf55.12.0

Video
ID : 1
Format : AVC
Format/Info : Advanced Video Codec
Format profile : [email protected]
Format settings : CABAC / 4 Ref Frames
Format settings, CABAC : Yes
Format settings, Reference frames : 4 frames
Codec ID : V_MPEG4/ISO/AVC
Duration : 1 h 30 min
Bit rate : 1 700 kb/s
Width : 720 pixels
Height : 308 pixels
Display aspect ratio : 2.35:1
Frame rate mode : Constant
Frame rate : 23.976 (24000/1001) FPS
Color space : YUV
Chroma subsampling : 4:2:0
Bit depth : 8 bits
Scan type : Progressive
Bits/(Pixel*Frame) : 0.320
Stream size : 1.03 GiB (88%)
Writing library : x264 core 142 r2479 dd79a61
Encoding settings : cabac=1 / ref=1 / deblock=1:0:0 / analyse=0x3:0x3 / me=dia / subme=1 / psy=1 / psy_rd=1.00:0.00 / mixed_ref=0 / me_range=16 / chroma_me=1 / trellis=0 / 8x8dct=1 / cqm=0 / deadzone=21,11 / fast_pskip=1 / chroma_qp_offset=0 / threads=12 / lookahead_threads=2 / sliced_threads=0 / nr=0 / decimate=1 / interlaced=0 / bluray_compat=0 / constrained_intra=0 / bframes=3 / b_pyramid=2 / b_adapt=1 / b_bias=0 / direct=1 / weightb=1 / open_gop=0 / weightp=1 / keyint=240 / keyint_min=24 / scenecut=40 / intra_refresh=0 / rc_lookahead=0 / rc=abr / mbtree=0 / bitrate=1700 / ratetol=1.0 / qcomp=0.60 / qpmin=0 / qpmax=69 / qpstep=4 / vbv_maxrate=62500 / vbv_bufsize=78125 / nal_hrd=none / filler=0 / ip_ratio=1.40 / pb_ratio=1.30 / aq=1:1.00
Default : Yes
Forced : No
Color range : Limited
Color primaries : BT.709
Transfer characteristics : BT.709
Matrix coefficients : BT.709
Statistics Tags Issue : mkvmerge v42.0.0 ('Overtime') 64-bit 2020-08-14 12:14:18 / mkvmerge v42.0.0 ('Overtime') 64-bit 2020-08-14 12:14:18 / UTC 2020-08-14T04:21:07Z
FromStats_BitRate : 1664384
FromStats_Duration : 01:30:42.938000000
FromStats_FrameCount : 130500
FromStats_StreamSize : 1132392792

Audio
ID : 2
Format : MPEG Audio
Format version : Version 1
Format profile : Layer 3
Format settings : Joint stereo
Codec ID : A_MPEG/L3
Codec ID/Hint : MP3
Duration : 1 h 30 min
Bit rate mode : Constant
Bit rate : 192 kb/s
Channel(s) : 2 channels
Sampling rate : 48.0 kHz
Compression mode : Lossy
Delay relative to video : -83 ms
Stream size : 125 MiB (10%)
Default : Yes
Forced : No
Statistics Tags Issue : mkvmerge v42.0.0 ('Overtime') 64-bit 2020-08-14 12:14:18 / mkvmerge v42.0.0 ('Overtime') 64-bit 2020-08-14 12:14:18 / UTC 2020-08-14T04:21:07Z
FromStats_BitRate : 192000
FromStats_Duration : 01:30:43.128000000
FromStats_FrameCount : 226797
FromStats_StreamSize : 130635072
Скриншоты
 

Вложения

  • 12,7 KB Просмотры: 0
    Личеров 0
    Сидеров 0
    Файлов 1
    Объем 1,2 GB

Привет!

Мы группа людей которые решили помочь другим в решении их проблем, а так же пользователям с поиском самых свежих и качественных инфопродуктов. За 4 с небольшим месяца мы создали этот форум на который заходят ежедневно тысячи человек и посещаемость постоянно растёт. Мы создали панель лицензирования для защиты PHP скриптов от воровства и SEO панель для мониторинга наших сайтов и выбора верной стратегии их развития. Мы надеемся что то что мы создали пригодится Вам и возможно Вы поможете нам развиваться и совершенствоваться вместе с Вами.

Статистика форума

Темы
406.605
Сообщения
465.026
Пользователи
84.387
Новый пользователь
Сергей1672021

Приложения форума для iOS и Android


У ркн там нет власти ;)
Приватные разговоры
Помощь Пользователи
    Вы не присоединились ни к одной комнате.