За последнюю неделю опубликовано 60 новых материалов.
Инструкция новичку Путеводитель по форуму Прокси для Telegram Показать подсказки , это бомба!

Скачать Перед пожаром / Before the Fire (2020) WEB-DL 1080p | L1 бесплатно через торрент

  • Поучаствуй (в качестве покупателя) в любых пяти совместных покупках (кроме завершённых и "Моментальных") и получи группу "Новичок" навсегда -> ссылка на раздел
  • Получай до 480 рублей за каждого приглашенного пользователя!
    представляем Вам очередное расширение партнерской программы, подробности описаны тут -> ссылка
  • 90% материалов доступно к скачиванию после простой регистрации!
    Если же ты хочешь скачивать материалы без требования оставлять отзывы то получи группу "Новичок", 10 способов повышения описаны тут -> ссылка
  • К сожалению количество битых ссылок растет и мы уже не можем их оперативно восстанавливать поэтому просим помощи у каждого нашего пользователя.
    С сегодняшнего дня, за каждую восстановленную ссылку мы заплатим Вам.
    Подробнее тут -> ссылка
  • Перенесем твои заслуги с другого ресурса!
    Мы понимаем как сложно прокачивать аккаунты на форумах, вроде раскачал аккаунт, а тут появляется ресурс в 100 раз круче но тоже с системой прокачки и снова качать аккаунт...
    Предлагаем вам перенести Ваши заслуги на другом подобном ресурсе к нам.
    Подробности описаны тут -> ссылка
  • Вы можете получать по 2.5% с каждой покупки и продажи на маркете! Подробности в теме Партнёрская программа
Если Вы не хотите скачивать, Вы всегда можетепосмотретьонлайн, просто нажмите кнопку ниже :

Открыть плеер

Torrent_Bot

Торрент-Бот
Бот форума
4 Окт 2016
92
163
20


Информация о фильме
Название: Перед пожаром
Оригинальное название: Before the Fire
Год выхода: 2020
Жанр: Триллер, фантастика, боевик
Режиссер: Чарли Бюхлер
В ролях: Дженна Линг, Джексон Дэвис, Райан Виджилант, Чарльз Хаббелл, Дакота Моррисей, Тим Дрисколл, М.Дж. Карми, Лиза Гудман, Джон Тэг, Мэри Бейдлер Гарен, Эндрю Марксман, Мартин Мика

О фильме:
Пандемия неизвестного вируса парализует жизнь страны. Крупные города закрыты на карантин, передвижение между населенными пунктами строго регламентируется. Известная актриса принимает не легкое решение покинуть мегаполис и вернуться в родной провинциальный городок к семье, которая ее ненавидит. Шум большого города сменяется на тишину захолустья с его размеренным ритмом жизни. Но угроза для Авы приходит не со стороны вируса, а из прошлого, возвращая в ее жизнь человека, который пытается разрушить ее мир.




Страна: США
Студия: Madfire
Продолжительность: 01:30:43
Перевод: Любительский одноголосый | datynet

Файл
Кодек: AVC
Качество: WEB-DL 1080p | Before.The.Fire.2020.1080p.WEB-DL.DD5.1.H264-CMRG
Видео: MPEG-4 AVC, 4567 Kбит/с, 1920x816, 23.976 кадр/с
Аудио #1: Русский (АС3, 2 ch, 192 Кбит/с, 48.0 KHz) Любительский (одноголосый, закадровый) datynet
Аудио #2: Английский (АС3, 6 ch, 384 Кбит/с, 48.0 KHz)
Субтитры: английские
► Без Рекламы!
Трейлер
MediaInfo
Источник: Before.The.Fire.2020.1080p.WEB-DL.DD5.1.H264-CMRG
General
Unique ID : 247596064793339287272467596745105234430 (0xBA45447CD521856CAF69AE186CC059FE)
Complete name : Before.The.Fire.2020.WEB-DL.1080p.mkv
Format : Matroska
Format version : Version 4
File size : 3.26 GiB
Duration : 1 h 30 min
Overall bit rate : 5 145 kb/s
Encoded date : UTC 2020-08-15 20:35:27
Writing application : mkvmerge v7.1.0 ('Good Love') 64bit built on Jul 27 2014 13:06:55
Writing library : libebml v1.3.0 + libmatroska v1.4.1

Video
ID : 1
Format : AVC
Format/Info : Advanced Video Codec
Format profile : [email protected]
Format settings : CABAC / 5 Ref Frames
Format settings, CABAC : Yes
Format settings, Reference fra : 5 frames
Codec ID : V_MPEG4/ISO/AVC
Duration : 1 h 30 min
Bit rate : 4 567 kb/s
Width : 1 920 pixels
Height : 816 pixels
Display aspect ratio : 2.35:1
Frame rate mode : Constant
Frame rate : 23.976 (24000/1001) FPS
Color space : YUV
Chroma subsampling : 4:2:0
Bit depth : 8 bits
Scan type : Progressive
Bits/(Pixel*Frame) : 0.122
Stream size : 2.89 GiB (89%)
Language : English
Default : Yes
Forced : No
Color range : Limited
Color primaries : BT.709
Transfer characteristics : BT.709
Matrix coefficients : BT.709

Audio #1
ID : 2
Format : AC-3
Format/Info : Audio Coding 3
Commercial name : Dolby Digital
Codec ID : A_AC3
Duration : 1 h 30 min
Bit rate mode : Constant
Bit rate : 192 kb/s
Channel(s) : 2 channels
Channel layout : L R
Sampling rate : 48.0 kHz
Frame rate : 31.250 FPS (1536 SPF)
Compression mode : Lossy
Stream size : 125 MiB (4%)
Title : datynet
Language : Russian
Service kind : Complete Main
Default : Yes
Forced : No

Audio #2
ID : 3
Format : AC-3
Format/Info : Audio Coding 3
Commercial name : Dolby Digital
Codec ID : A_AC3
Duration : 1 h 30 min
Bit rate mode : Constant
Bit rate : 384 kb/s
Channel(s) : 6 channels
Channel layout : L R C LFE Ls Rs
Sampling rate : 48.0 kHz
Frame rate : 31.250 FPS (1536 SPF)
Compression mode : Lossy
Stream size : 249 MiB (7%)
Language : English
Service kind : Complete Main
Default : No
Forced : No

Text
ID : 4
Format : UTF-8
Codec ID : S_TEXT/UTF8
Codec ID/Info : UTF-8 Plain Text
Duration : 1 h 26 min
Bit rate : 38 b/s
Count of elements : 937
Stream size : 24.2 KiB (0%)
Language : English
Default : No
Forced : No

Menu
00:00:00.000 : en:1
00:13:25.471 : en:2
00:24:18.957 : en:3
00:36:13.421 : en:4
00:45:50.831 : en:5
00:58:24.501 : en:6
01:11:09.890 : en:7
01:21:44.983 : en:8
01:27:43.383 : en:9
Скриншоты
 

Вложения

  • 17,2 KB Просмотры: 0
    Личеров 0
    Сидеров 0
    Файлов 1
    Объем 3,3 GB

Привет!

Мы группа людей которые решили помочь другим в решении их проблем, а так же пользователям с поиском самых свежих и качественных инфопродуктов. За 4 с небольшим месяца мы создали этот форум на который заходят ежедневно тысячи человек и посещаемость постоянно растёт. Мы создали панель лицензирования для защиты PHP скриптов от воровства и SEO панель для мониторинга наших сайтов и выбора верной стратегии их развития. Мы надеемся что то что мы создали пригодится Вам и возможно Вы поможете нам развиваться и совершенствоваться вместе с Вами.

Статистика форума

Темы
406.695
Сообщения
465.154
Пользователи
84.763
Новый пользователь
Елиза

Приложения форума для iOS и Android


У ркн там нет власти ;)
Приватные разговоры
Помощь Пользователи
    Вы не присоединились ни к одной комнате.