За последнюю неделю опубликовано 84 новых материалов.
Инструкция новичку Путеводитель по форуму Прокси для Telegram Показать подсказки , это бомба!

Скачать Пентхаус / The Penthouse (2010) WEBRip 720p | P2, P бесплатно через торрент

  • Поучаствуй (в качестве покупателя) в любых пяти совместных покупках (кроме завершённых и "Моментальных") и получи группу "Новичок" навсегда -> ссылка на раздел
  • Получай до 480 рублей за каждого приглашенного пользователя!
    представляем Вам очередное расширение партнерской программы, подробности описаны тут -> ссылка
  • 90% материалов доступно к скачиванию после простой регистрации!
    Если же ты хочешь скачивать материалы без требования оставлять отзывы то получи группу "Новичок", 10 способов повышения описаны тут -> ссылка
  • К сожалению количество битых ссылок растет и мы уже не можем их оперативно восстанавливать поэтому просим помощи у каждого нашего пользователя.
    С сегодняшнего дня, за каждую восстановленную ссылку мы заплатим Вам.
    Подробнее тут -> ссылка
  • Перенесем твои заслуги с другого ресурса!
    Мы понимаем как сложно прокачивать аккаунты на форумах, вроде раскачал аккаунт, а тут появляется ресурс в 100 раз круче но тоже с системой прокачки и снова качать аккаунт...
    Предлагаем вам перенести Ваши заслуги на другом подобном ресурсе к нам.
    Подробности описаны тут -> ссылка
  • Вы можете получать по 2.5% с каждой покупки и продажи на маркете! Подробности в теме Партнёрская программа
Если Вы не хотите скачивать, Вы всегда можетепосмотретьонлайн, просто нажмите кнопку ниже :

Открыть плеер

Torrent_Bot

Торрент-Бот
Бот форума
4 Окт 2016
104
152
20



Информация о фильме
Название: Пентхаус
Оригинальное название: The Penthouse
Год выхода: 2010
Жанр: комедия
Режиссер: Крис Левитус
В ролях: Райдер Стронг, Кори Лардж, Эйприл Скотт, Джеймс ДеБелло, Кейли Куоко, Майя, Никки Гриффин, Локлин Манро, Джимми Жан-Луи, Джон Абрахамс

О фильме:
Парень по имени Тайлер выигрывает в популярном телешоу, и в качестве приза получает огромный пентхаус. Он незамедлительно предлагает двум своим закадычным друзьям перебраться к нему. Ребята не могли и представить, что им предстоит столкнуться с большими проблемами, когда один их друзей решит пригласить жить свою подружку, а младшая сестренка одного из них преподнесет ему небольшой сюрприз…



Страна: США
Студия: Tunnel Post, Wingman Productions Inc.
Продолжительность: 01:29:10
Перевод: Профессиональный двухголосый, закадровый; профессиональный многоголосый, закадровый [ТНТ]

Файл
Кодек: H.264
Качество: WEBRip 720p
Видео: AVC, 1280x720 (16:9), 23.976 fps ~ 4100 Kbps
Звук:
AC3, 48 KHz, 6 ch ~ 448 Kb/s (двухголосый)
AC3, 48 KHz, 2 ch ~ 192 Kb/s (ТНТ)
AC3, 48 KHz, 6 ch ~ 384 Kb/s (английский)
Субтитры: английские

MI:
Общее
Уникальный идентификатор : 224765721103140950822748871338463193690 (0xA9184DA364AB1C67A19FFDBD0469EA5A)
Полное имя : Q:TorFPenthouse.2010.WEB-DL.720p.2xRUS.ENG.mkv
Формат : Matroska
Версия формата : Version 4 / Version 2
Размер файла : 3,26 Гбайт
Продолжительность : 1 ч. 29 м.
Общий поток : 5229 Кбит/сек
Название фильма : Пентхаус / The Penthouse (2010) WEB-DL 720p [RG Torrents.ru]
Дата кодирования : UTC 2015-08-07 16:18:28
Программа кодирования : mkvmerge v7.8.0 ('River Man') 32bit built on Mar 27 2015 16:18:02
Библиотека кодирования : libebml v1.3.1 + libmatroska v1.4.2
Attachment : Yes

Видео
Идентификатор : 1
Формат : AVC
Формат/Информация : Advanced Video Codec
Профиль формата : High@L3.1
Параметр CABAC формата : Нет
Параметр ReFrames формата : 2 кадра
Идентификатор кодека : V_MPEG4/ISO/AVC
Продолжительность : 1 ч. 29 м.
Битрейт : 4101 Кбит/сек
Ширина : 1280 пикселей
Высота : 720 пикселей
Соотношение сторон : 16:9
Частота кадров : 23,976 кадра/сек
Цветовое пространство : YUV
Субдискретизация насыщенности : 4:2:0
Битовая глубина : 8 бит
Тип развёртки : Прогрессивная
Бит/(Пиксели*Кадры) : 0.186
Размер потока : 2,55 Гбайт (78%)
Язык : English
Default : Да
Forced : Нет
Основные цвета : BT.709-5, BT.1361, IEC 61966-2-4, SMPTE RP177
Характеристики трансфера : BT.709-5, BT.1361
Коэффициенты матрицы : BT.709-5, BT.1361, IEC 61966-2-4 709, SMPTE RP177

Аудио #1
Идентификатор : 2
Формат : AC-3
Формат/Информация : Audio Coding 3
Расширение режима : CM (complete main)
Идентификатор кодека : A_AC3
Продолжительность : 1 ч. 29 м.
Вид битрейта : Постоянный
Битрейт : 448 Кбит/сек
Каналы : 6 каналов
Расположение каналов : Front: L C R, Side: L R, LFE
Частота : 48,0 КГц
Битовая глубина : 16 бит
Метод сжатия : С потерями
Размер потока : 286 Мбайт (9%)
Заголовок : DVO
Язык : Russian
Default : Да
Forced : Нет

Аудио #2
Идентификатор : 3
Формат : AC-3
Формат/Информация : Audio Coding 3
Расширение режима : CM (complete main)
Идентификатор кодека : A_AC3
Продолжительность : 1 ч. 29 м.
Вид битрейта : Постоянный
Битрейт : 192 Кбит/сек
Каналы : 2 канала
Расположение каналов : Front: L R
Частота : 48,0 КГц
Битовая глубина : 16 бит
Метод сжатия : С потерями
Размер потока : 122 Мбайт (4%)
Заголовок : MVO - TNT
Язык : Russian
Default : Нет
Forced : Нет

Аудио #3
Идентификатор : 4
Формат : AC-3
Формат/Информация : Audio Coding 3
Расширение режима : CM (complete main)
Идентификатор кодека : A_AC3
Продолжительность : 1 ч. 29 м.
Вид битрейта : Постоянный
Битрейт : 384 Кбит/сек
Каналы : 6 каналов
Расположение каналов : Front: L C R, Side: L R, LFE
Частота : 48,0 КГц
Битовая глубина : 16 бит
Метод сжатия : С потерями
Размер потока : 245 Мбайт (7%)
Язык : English
Default : Нет
Forced : Нет

Текст
Идентификатор : 5
Формат : UTF-8
Идентификатор кодека : S_TEXT/UTF8
Идентификатор кодека/Информация : UTF-8 Plain Text
Язык : English
Default : Нет
Forced : Нет

Меню
00:00:00.000 : en:Fierce Competition
00:07:31.000 : en:Something To Tell You
00:16:04.000 : en:State Of Shock
00:24:32.000 : en:On MTV
00:32:06.000 : en:Smell What I'm Cookin'
00:39:42.000 : en:Dream Shower
00:46:40.000 : en:Tell Us About Yourself
00:53:13.000 : en:Gut Feeling
00:59:50.000 : en:Living Large
01:10:00.000 : en:Forgiveness
01:16:11.000 : en:Smart Reviewer
01:25:40.000 : en:End Credits

Скриншоты
 

Вложения

  • 17,2 KB Просмотры: 1
    Личеров 0
    Сидеров 0
    Файлов 1
    Объем 3,3 GB

Привет!

Мы группа людей которые решили помочь другим в решении их проблем, а так же пользователям с поиском самых свежих и качественных инфопродуктов. За 4 с небольшим месяца мы создали этот форум на который заходят ежедневно тысячи человек и посещаемость постоянно растёт. Мы создали панель лицензирования для защиты PHP скриптов от воровства и SEO панель для мониторинга наших сайтов и выбора верной стратегии их развития. Мы надеемся что то что мы создали пригодится Вам и возможно Вы поможете нам развиваться и совершенствоваться вместе с Вами.

Статистика форума

Темы
404.550
Сообщения
461.464
Пользователи
80.103
Новый пользователь
MetthewXXX

Приложения форума для iOS и Android


У ркн там нет власти ;)
Приватные разговоры
Помощь Пользователи
    Вы не присоединились ни к одной комнате.