За последнюю неделю опубликовано 35 новых материалов.
Инструкция новичку Путеводитель по форуму Прокси для Telegram Показать подсказки , это бомба!

Скачать Peggy Lee - Swing [24bit Hi-Res, Remastered] (1948/2020) FLAC бесплатно через торрент

  • Поучаствуй (в качестве покупателя) в любых пяти совместных покупках (кроме завершённых и "Моментальных") и получи группу "Новичок" навсегда -> ссылка на раздел
  • Получай до 480 рублей за каждого приглашенного пользователя!
    представляем Вам очередное расширение партнерской программы, подробности описаны тут -> ссылка
  • 90% материалов доступно к скачиванию после простой регистрации!
    Если же ты хочешь скачивать материалы без требования оставлять отзывы то получи группу "Новичок", 10 способов повышения описаны тут -> ссылка
  • К сожалению количество битых ссылок растет и мы уже не можем их оперативно восстанавливать поэтому просим помощи у каждого нашего пользователя.
    С сегодняшнего дня, за каждую восстановленную ссылку мы заплатим Вам.
    Подробнее тут -> ссылка
  • Перенесем твои заслуги с другого ресурса!
    Мы понимаем как сложно прокачивать аккаунты на форумах, вроде раскачал аккаунт, а тут появляется ресурс в 100 раз круче но тоже с системой прокачки и снова качать аккаунт...
    Предлагаем вам перенести Ваши заслуги на другом подобном ресурсе к нам.
    Подробности описаны тут -> ссылка
  • Вы можете получать по 2.5% с каждой покупки и продажи на маркете! Подробности в теме Партнёрская программа

Torrent_Bot

Торрент-Бот
Бот форума
4 Окт 2016
122
108
20



Исполнитель: Peggy Lee | Название: Swing | Страна: USA
Жанр: Vocal-Jazz
Год: 2019 | Продолжительность: 00:42:43
Битрейт аудио: Lossless | Формат/Кодек: FLAC
Разрядность: 24/192 | Количество каналов: 2.0
Тип рипа: tracks
Peggy Lee - Swing, Remastered


01. What Can I Say After I Say I'm Sorry (2:01)
02. Mountain Greenery (2:00)
03. Hard Hearted Hannah (the Vamp of Savannah) (1:53)
04. Mean to Me (3:12)
05. People Will Say We're in Love (1:33)
06. Button Up Your Overcoat (2:01)
07. The Surrey with the Fringe on Top (2:13)
08. Between the Devil and the Deep Blue Sea (2:14)
09. Love Me or Leave Me (2:07)
10. Deed I Do (2:04)
11. Let There Be Love (2:07)
12. I May Be Wrong (but I Think You're Wonderful) (1:50)
13. I Feel a Song Comin' On (1:33)
14. I Gotta Right to Sing the Blues (2:16)
15. Too Marvelous for Words (1:29)
16. I Get a Kick Out of You (2:26)
17. Ac-Cent-Tchu-Ate the Positive (2:17)
18. Them There Eyes (1:48)
19. Me (2:05)
20. The Best Things in Life Are Free (1:39)
21. Taking a Chance On Love (2:08)
DR
foobar2000 1.5 / Замер динамического диапазона (DR) 1.1.1
Дата отчёта: 2020-01-14 12:23:31

--------------------------------------------------------------------------------
Анализ: Peggy Lee / SWING (Remastered)
--------------------------------------------------------------------------------

DR Пики RMS Продолжительность трека
--------------------------------------------------------------------------------
DR11 -4.46 дБ -17.51 дБ 2:01 01-What Can I Say After I Say I'm Sorry
DR12 -2.63 дБ -15.98 дБ 2:00 02-Mountain Greenery
DR11 -2.50 дБ -16.18 дБ 1:53 03-Hard Hearted Hannah (the Vamp of Savannah)
DR12 -1.45 дБ -16.20 дБ 3:12 04-Mean to Me
DR13 -1.36 дБ -16.21 дБ 1:33 05-People Will Say We're in Love
DR12 -3.22 дБ -17.23 дБ 2:01 06-Button Up Your Overcoat
DR13 -1.44 дБ -16.07 дБ 2:13 07-The Surrey with the Fringe on Top
DR10 -1.93 дБ -15.16 дБ 2:14 08-Between the Devil and the Deep Blue Sea
DR10 -2.21 дБ -13.60 дБ 2:07 09-Love Me or Leave Me
DR10 -2.21 дБ -15.19 дБ 2:04 10-Deed I Do
DR11 -1.36 дБ -15.14 дБ 2:07 11-Let There Be Love
DR11 -1.71 дБ -14.66 дБ 1:50 12-I May Be Wrong (but I Think You're Wonderful)
DR10 -1.65 дБ -13.79 дБ 1:33 13-I Feel a Song Comin' On
DR10 -1.22 дБ -14.51 дБ 2:16 14-I Gotta Right to Sing the Blues
DR10 -2.77 дБ -14.67 дБ 1:29 15-Too Marvelous for Words
DR12 -0.44 дБ -15.13 дБ 2:26 16-I Get a Kick Out of You
DR12 -0.22 дБ -15.17 дБ 2:17 17-Ac-Cent-Tchu-Ate the Positive
DR10 -3.61 дБ -16.30 дБ 1:48 18-Them There Eyes
DR11 -2.98 дБ -16.30 дБ 2:05 19-Me
DR11 -2.38 дБ -15.07 дБ 1:39 20-The Best Things in Life Are Free
DR11 -1.37 дБ -15.27 дБ 2:08 21-Taking a Chance On Love
--------------------------------------------------------------------------------

Количество треков: 21
Реальные значения DR: DR11

Частота: 192000 Гц
Каналов: 2
Разрядность: 24
Битрейт: 4486 кбит/с
Кодек: FLAC
================================================================================
 

Вложения

  • 16 KB Просмотры: 0
    Личеров 0
    Сидеров 0
    Файлов 24
    Объем 1,4 GB

Привет!

Мы группа людей которые решили помочь другим в решении их проблем, а так же пользователям с поиском самых свежих и качественных инфопродуктов. За 4 с небольшим месяца мы создали этот форум на который заходят ежедневно тысячи человек и посещаемость постоянно растёт. Мы создали панель лицензирования для защиты PHP скриптов от воровства и SEO панель для мониторинга наших сайтов и выбора верной стратегии их развития. Мы надеемся что то что мы создали пригодится Вам и возможно Вы поможете нам развиваться и совершенствоваться вместе с Вами.

Статистика форума

Темы
384.762
Сообщения
428.381
Пользователи
59.720
Новый пользователь
olgaaaa

Приложения форума для iOS и Android


У ркн там нет власти ;)
Приватные разговоры
Помощь Пользователи
    Вы не присоединились ни к одной комнате.