За последнюю неделю опубликовано 29 новых материалов.
Инструкция новичку Путеводитель по форуму Прокси для Telegram Показать подсказки , это бомба!

Скачать Парк Юрского периода: Антология / Jurassic Park: Antology (1993-2018) BDRip-AVC от DrVampir | D, P, A бесплатно через торрент

  • Поучаствуй (в качестве покупателя) в любых пяти совместных покупках (кроме завершённых и "Моментальных") и получи группу "Новичок" навсегда -> ссылка на раздел
  • Получай до 480 рублей за каждого приглашенного пользователя!
    представляем Вам очередное расширение партнерской программы, подробности описаны тут -> ссылка
  • 90% материалов доступно к скачиванию после простой регистрации!
    Если же ты хочешь скачивать материалы без требования оставлять отзывы то получи группу "Новичок", 10 способов повышения описаны тут -> ссылка
  • К сожалению количество битых ссылок растет и мы уже не можем их оперативно восстанавливать поэтому просим помощи у каждого нашего пользователя.
    С сегодняшнего дня, за каждую восстановленную ссылку мы заплатим Вам.
    Подробнее тут -> ссылка
  • Перенесем твои заслуги с другого ресурса!
    Мы понимаем как сложно прокачивать аккаунты на форумах, вроде раскачал аккаунт, а тут появляется ресурс в 100 раз круче но тоже с системой прокачки и снова качать аккаунт...
    Предлагаем вам перенести Ваши заслуги на другом подобном ресурсе к нам.
    Подробности описаны тут -> ссылка
  • Вы можете получать по 2.5% с каждой покупки и продажи на маркете! Подробности в теме Партнёрская программа
Если Вы не хотите скачивать, Вы всегда можетепосмотретьонлайн, просто нажмите кнопку ниже :

Открыть плеер

Torrent_Bot

Торрент-Бот
Бот форума
4 Окт 2016
93
155
20
Годы выпуска: 1993-2018
Страна: США
Жанр:приключения, фантастика, семейный, боевик, триллер
Режиссёр: Стивен Спилберг, Джо Джонстон, Колин Треворроу, Хуан Антонио Байона.

Парк Юрского периода (1993)
Скрытый текст
Оригинальное название: Jurassic Park
Режиссер: Стивен Спилберг
Год выпуска: 1993
Страна: США
Жанр: приключения, фантастика, семейный
Продолжительность: 02:06:36
Перевод: Дублированный, профессиональный многоголосый, авторский одноголосый.
Cубтитры: Русские, английские

В ролях: Сэм Нил, Лора Дерн, Джефф Голдблюм, Ричард Аттенборо, Джозеф Маццелло, Ариана Ричардс, Уэйн Найт, Боб Пек, Мартин Ферреро, Сэмюэл Л. Джексон.

Описание: Экспансивный богач и профессор уговаривает пару ученых-палеонтологов приехать на остров у побережья Коста-Рики, где он устроил реликтовый парк. В парке этом водятся древние зверушки — динозавры, которые по его идее и должны стать гвоздем программы нового аттракциона.

До открытия остается несколько дней, а один из работников, пытаясь продать «рассаду» налево, нарушает систему охраны, что в комплексе с грозовым ливнем приводит к тому, что доисторические животные оказываются на воле, где действуют в соответствии со своими инстинктами.



Файл
Кодек: h.264
Качество: BDRip-AVC
Видео: MPEG-4, 1080x584, 23.976 fps ~2745 kbps
Звук:
1) E-AC3 6 ch, 48 kHz ~512 kbps - Dub
2) AC3 6 ch, 48 kHz ~384 kbps - MVO [Карусель]
3) AC3 6 ch, 48 kHz ~384 kbps - MVO [Пифагор]
4) E-AC3 2 ch, 48 kHz ~224 kbps - AVO [Гаврилов]
5) E-AC3 2 ch, 48 kHz ~224 kbps - AVO [Живов]
6) AC3 6 ch, 48 kHz ~448 kbps - Original

Media Info:
Скрытый текст
General
Unique ID : 85680297358780293193958098459422284212 (0x40756CCEF1E1712F5292DB39393AD9B4)
Complete name : K:VIDEOПарк Юрского периода - Антология [1993-2015]1.Парк Юрского периода (1993).mkv
Format : Matroska
Format version : Version 4 / Version 2
File size : 4.35 GiB
Duration : 2 h 6 min
Overall bit rate : 4 920 kb/s
Movie name : Jurassic Park (1993) BDRip-AVC от DrVampir
Encoded date : UTC 2018-05-18 14:12:04 / UTC 2018-05-18T02:10:20Z
Writing application : mkvmerge v23.0.0 ('The Bride Said No') 64-bit
Writing library : libebml v1.3.6 + libmatroska v1.4.9 / Lavf57.7.2
Cover : Yes
Attachments : Cover.jpg

Video
ID : 1
Format : AVC
Format/Info : Advanced Video Codec
Format profile : High@L4.1
Format settings : CABAC / 12 Ref Frames
Format settings, CABAC : Yes
Format settings, ReFrames : 12 frames
Codec ID : V_MPEG4/ISO/AVC
Duration : 2 h 6 min
Bit rate : 2 745 kb/s
Width : 1 080 pixels
Height : 584 pixels
Display aspect ratio : 1.85:1
Frame rate mode : Constant
Frame rate : 23.976 (24000/1001) FPS
Color space : YUV
Chroma subsampling : 4:2:0
Bit depth : 8 bits
Scan type : Progressive
Bits/(Pixel*Frame) : 0.182
Stream size : 2.34 GiB (54%)
Title : MPEG-4, 1080x584, 23.976 fps ~2745 kbps
Writing library : x264 core 155 r2893 b00bcaf
Encoding settings : cabac=1 / ref=12 / deblock=1:-3:-3 / analyse=0x3:0x133 / me=umh / subme=11 / psy=1 / psy_rd=1.00:0.20 / mixed_ref=1 / me_range=48 / chroma_me=1 / trellis=2 / 8x8dct=1 / cqm=0 / deadzone=21,11 / fast_pskip=0 / chroma_qp_offset=-3 / threads=6 / lookahead_threads=1 / sliced_threads=0 / nr=0 / decimate=1 / interlaced=0 / bluray_compat=0 / constrained_intra=0 / bframes=16 / b_pyramid=2 / b_adapt=2 / b_bias=0 / direct=3 / weightb=1 / open_gop=0 / weightp=2 / keyint=240 / keyint_min=24 / scenecut=40 / intra_refresh=0 / rc_lookahead=80 / rc=2pass / mbtree=0 / bitrate=2745 / ratetol=1.0 / qcomp=0.60 / qpmin=0 / qpmax=69 / qpstep=4 / cplxblur=20.0 / qblur=0.5 / vbv_maxrate=62500 / vbv_bufsize=78125 / nal_hrd=none / filler=0 / ip_ratio=1.40 / pb_ratio=1.30 / aq=1:1.00
Language : English
Default : Yes
Forced : No
Color range : Limited
Color primaries : BT.709
Transfer characteristics : BT.709
Matrix coefficients : BT.709
Statistics Tags Issue : mkvmerge v23.0.0 ('The Bride Said No') 64-bit 2018-05-18 14:12:04 / mkvmerge v23.0.0 ('The Bride Said No') 64-bit 2018-05-18 14:12:04 / UTC 2018-05-18T02:10:20Z
FromStats_BitRate : 2743055
FromStats_Duration : 02:06:36.589000000
FromStats_FrameCount : 182136
FromStats_StreamSize : 2604732961

Audio #1
ID : 2
Format : E-AC-3
Format/Info : Enhanced Audio Coding 3
Codec ID : A_EAC3
Duration : 2 h 6 min
Bit rate mode : Constant
Bit rate : 512 kb/s
Channel(s) : 6 channels
Channel positions : Front: L C R, Side: L R, LFE
Sampling rate : 48.0 kHz
Frame rate : 187.500 FPS (256 SPF)
Compression mode : Lossy
Stream size : 464 MiB (10%)
Title : E-AC3 6 ch, 48 kHz ~512 kbps - Dub
Language : Russian
Service kind : Complete Main
Default : Yes
Forced : No
Statistics Tags Issue : mkvmerge v23.0.0 ('The Bride Said No') 64-bit 2018-05-18 14:12:04 / mkvmerge v23.0.0 ('The Bride Said No') 64-bit 2018-05-18 14:12:04 / UTC 2018-05-18T02:10:20Z
FromStats_BitRate : 512000
FromStats_Duration : 02:06:26.752000000
FromStats_FrameCount : 237086
FromStats_StreamSize : 485552128

Audio #2
ID : 3
Format : AC-3
Format/Info : Audio Coding 3
Codec ID : A_AC3
Duration : 2 h 6 min
Bit rate mode : Constant
Bit rate : 384 kb/s
Channel(s) : 6 channels
Channel positions : Front: L C R, Side: L R, LFE
Sampling rate : 48.0 kHz
Frame rate : 31.250 FPS (1536 SPF)
Bit depth : 16 bits
Compression mode : Lossy
Stream size : 348 MiB (8%)
Title : AC3 6 ch, 48 kHz ~384 kbps - MVO [Карусель]
Language : Russian
Service kind : Complete Main
Default : No
Forced : No
Statistics Tags Issue : mkvmerge v23.0.0 ('The Bride Said No') 64-bit 2018-05-18 14:12:04 / mkvmerge v23.0.0 ('The Bride Said No') 64-bit 2018-05-18 14:12:04 / UTC 2018-05-18T02:10:20Z
FromStats_BitRate : 384000
FromStats_Duration : 02:06:36.608000000
FromStats_FrameCount : 237394
FromStats_StreamSize : 364637184

Audio #3
ID : 4
Format : AC-3
Format/Info : Audio Coding 3
Codec ID : A_AC3
Duration : 2 h 6 min
Bit rate mode : Constant
Bit rate : 384 kb/s
Channel(s) : 6 channels
Channel positions : Front: L C R, Side: L R, LFE
Sampling rate : 48.0 kHz
Frame rate : 31.250 FPS (1536 SPF)
Bit depth : 16 bits
Compression mode : Lossy
Stream size : 348 MiB (8%)
Title : AC3 6 ch, 48 kHz ~384 kbps - MVO [Пифагор]
Language : Russian
Service kind : Complete Main
Default : No
Forced : No
Statistics Tags Issue : mkvmerge v23.0.0 ('The Bride Said No') 64-bit 2018-05-18 14:12:04 / mkvmerge v23.0.0 ('The Bride Said No') 64-bit 2018-05-18 14:12:04 / UTC 2018-05-18T02:10:20Z
FromStats_BitRate : 384000
FromStats_Duration : 02:06:36.608000000
FromStats_FrameCount : 237394
FromStats_StreamSize : 364637184

Audio #4
ID : 5
Format : E-AC-3
Format/Info : Enhanced Audio Coding 3
Codec ID : A_EAC3
Duration : 2 h 6 min
Bit rate mode : Constant
Bit rate : 224 kb/s
Channel(s) : 2 channels
Channel positions : Front: L R
Sampling rate : 48.0 kHz
Frame rate : 187.500 FPS (256 SPF)
Compression mode : Lossy
Stream size : 203 MiB (5%)
Title : E-AC3 2 ch, 48 kHz ~224 kbps - AVO [Гаврилов]
Language : Russian
Service kind : Complete Main
Default : No
Forced : No
Statistics Tags Issue : mkvmerge v23.0.0 ('The Bride Said No') 64-bit 2018-05-18 14:12:04 / mkvmerge v23.0.0 ('The Bride Said No') 64-bit 2018-05-18 14:12:04 / UTC 2018-05-18T02:10:20Z
FromStats_BitRate : 224000
FromStats_Duration : 02:06:36.608000000
FromStats_FrameCount : 237394
FromStats_StreamSize : 212705024

Audio #5
ID : 6
Format : E-AC-3
Format/Info : Enhanced Audio Coding 3
Codec ID : A_EAC3
Duration : 2 h 6 min
Bit rate mode : Constant
Bit rate : 224 kb/s
Channel(s) : 2 channels
Channel positions : Front: L R
Sampling rate : 48.0 kHz
Frame rate : 187.500 FPS (256 SPF)
Compression mode : Lossy
Stream size : 203 MiB (5%)
Title : E-AC3 2 ch, 48 kHz ~224 kbps - AVO [Живов]
Language : Russian
Service kind : Complete Main
Default : No
Forced : No
Statistics Tags Issue : mkvmerge v23.0.0 ('The Bride Said No') 64-bit 2018-05-18 14:12:04 / mkvmerge v23.0.0 ('The Bride Said No') 64-bit 2018-05-18 14:12:04 / UTC 2018-05-18T02:10:20Z
FromStats_BitRate : 224000
FromStats_Duration : 02:06:36.608000000
FromStats_FrameCount : 237394
FromStats_StreamSize : 212705024

Audio #6
ID : 7
Format : AC-3
Format/Info : Audio Coding 3
Codec ID : A_AC3
Duration : 2 h 6 min
Bit rate mode : Constant
Bit rate : 448 kb/s
Channel(s) : 6 channels
Channel positions : Front: L C R, Side: L R, LFE
Sampling rate : 48.0 kHz
Frame rate : 31.250 FPS (1536 SPF)
Bit depth : 16 bits
Compression mode : Lossy
Stream size : 406 MiB (9%)
Title : AC3 6 ch, 48 kHz ~448 kbps - Original
Language : English
Service kind : Complete Main
Default : No
Forced : No
Statistics Tags Issue : mkvmerge v23.0.0 ('The Bride Said No') 64-bit 2018-05-18 14:12:04 / mkvmerge v23.0.0 ('The Bride Said No') 64-bit 2018-05-18 14:12:04 / UTC 2018-05-18T02:10:20Z
FromStats_BitRate : 448000
FromStats_Duration : 02:06:36.576000000
FromStats_FrameCount : 237393
FromStats_StreamSize : 425408256

Text #1
ID : 8
Format : ASS
Codec ID : S_TEXT/ASS
Codec ID/Info : Advanced Sub Station Alpha
Compression mode : Lossless
Language : Russian
Default : No
Forced : No
Statistics Tags Issue : mkvmerge v23.0.0 ('The Bride Said No') 64-bit 2018-05-18 14:12:04 / mkvmerge v23.0.0 ('The Bride Said No') 64-bit 2018-05-18 14:12:04 / UTC 2018-05-18T02:10:20Z
FromStats_BitRate : 3
FromStats_Duration : 02:05:33.994000000
FromStats_FrameCount : 44
FromStats_StreamSize : 3192

Text #2
ID : 9
Format : ASS
Codec ID : S_TEXT/ASS
Codec ID/Info : Advanced Sub Station Alpha
Compression mode : Lossless
Language : Russian
Default : No
Forced : No
Statistics Tags Issue : mkvmerge v23.0.0 ('The Bride Said No') 64-bit 2018-05-18 14:12:04 / mkvmerge v23.0.0 ('The Bride Said No') 64-bit 2018-05-18 14:12:04 / UTC 2018-05-18T02:10:20Z
FromStats_BitRate : 137
FromStats_Duration : 01:57:47.863000000
FromStats_FrameCount : 1479
FromStats_StreamSize : 121406

Text #3
ID : 10
Format : ASS
Codec ID : S_TEXT/ASS
Codec ID/Info : Advanced Sub Station Alpha
Compression mode : Lossless
Language : Russian
Default : No
Forced : No
Statistics Tags Issue : mkvmerge v23.0.0 ('The Bride Said No') 64-bit 2018-05-18 14:12:04 / mkvmerge v23.0.0 ('The Bride Said No') 64-bit 2018-05-18 14:12:04 / UTC 2018-05-18T02:10:20Z
FromStats_BitRate : 102
FromStats_Duration : 02:05:33.994000000
FromStats_FrameCount : 1149
FromStats_StreamSize : 96799

Text #4
ID : 11
Format : ASS
Codec ID : S_TEXT/ASS
Codec ID/Info : Advanced Sub Station Alpha
Compression mode : Lossless
Language : Russian
Default : No
Forced : No
Statistics Tags Issue : mkvmerge v23.0.0 ('The Bride Said No') 64-bit 2018-05-18 14:12:04 / mkvmerge v23.0.0 ('The Bride Said No') 64-bit 2018-05-18 14:12:04 / UTC 2018-05-18T02:10:20Z
FromStats_BitRate : 176
FromStats_Duration : 00:02:49.884000000
FromStats_FrameCount : 41
FromStats_StreamSize : 3745

Text #5
ID : 12
Format : ASS
Codec ID : S_TEXT/ASS
Codec ID/Info : Advanced Sub Station Alpha
Compression mode : Lossless
Language : English
Default : No
Forced : No
Statistics Tags Issue : mkvmerge v23.0.0 ('The Bride Said No') 64-bit 2018-05-18 14:12:04 / mkvmerge v23.0.0 ('The Bride Said No') 64-bit 2018-05-18 14:12:04 / UTC 2018-05-18T02:10:20Z
FromStats_BitRate : 88
FromStats_Duration : 02:01:34.286000000
FromStats_FrameCount : 1417
FromStats_StreamSize : 80552

Text #6
ID : 13
Format : ASS
Codec ID : S_TEXT/ASS
Codec ID/Info : Advanced Sub Station Alpha
Compression mode : Lossless
Language : English
Default : No
Forced : No
Statistics Tags Issue : mkvmerge v23.0.0 ('The Bride Said No') 64-bit 2018-05-18 14:12:04 / mkvmerge v23.0.0 ('The Bride Said No') 64-bit 2018-05-18 14:12:04 / UTC 2018-05-18T02:10:20Z
FromStats_BitRate : 81
FromStats_Duration : 01:57:09.853000000
FromStats_FrameCount : 1217
FromStats_StreamSize : 71811

Menu
00:00:00.000 : :00:00:00.000
00:05:19.820 : :00:05:19.819
00:10:14.739 : :00:10:14.739
00:15:17.041 : :00:15:17.041
00:19:33.214 : :00:19:33.214
00:23:46.800 : :00:23:46.800
00:31:40.148 : :00:31:40.148
00:37:59.194 : :00:37:59.194
00:40:26.674 : :00:40:26.674
00:55:28.033 : :00:55:28.033
01:01:43.241 : :01:01:43.241
01:10:44.115 : :01:10:44.115
01:20:01.130 : :01:20:01.130
01:34:03.972 : :01:34:03.972
01:39:45.313 : :01:39:45.313
01:43:43.175 : :01:43:43.175
01:47:56.845 : :01:47:56.845
01:54:45.379 : :01:54:45.378
01:58:04.411 : :01:58:04.411
01:59:55.980 : :01:59:55.980
Скриншоты

Парк Юрского периода 2 - Затерянный мир (1997)
Скрытый текст
Оригинальное название: The Lost World: Jurassic Park
Режиссер: Стивен Спилберг
Год выпуска: 1997
Страна: США
Жанр: фантастика, боевик, приключения
Продолжительность: 02:08:43
Перевод: Дублированный, профессиональный многоголосый, авторский одноголосый.
Cубтитры: Русские, английские

В ролях: Джефф Голдблюм, Джулианна Мур, Винс Вон, Ванесса Ли Честер, Пит Постлетуэйт, Арлисс Ховард, Ричард Аттенборо, Ричард Шифф, Петер Стормаре, Харви Джейсон .

Описание: События этого фильма разворачиваются через четыре года после того, что произошло в «Парке Юрского периода». На близлежащем острове динозавры выжили и адаптировались к дикой природе. Но вот находится Некто, кто хочет перевезти их на материк и заработать на этом, не понимая, какими могут быть последствия, и посылает на остров своих людей.

Джон Хэммонд, который потерял контроль над своей компанией, считает, что у него появился шанс исправить свои прошлые ошибки. Он, в свою очередь, снаряжает экспедицию во главе с Яном Малкольмом, чтобы появиться там до высадки наемников.

В результате происходящих событий две эти конфликтующие группы вынуждены объединиться перед лицом смертельной опасности. И, как потом выясняется, времени им отпущено совсем немного.



Файл
Кодек: h.264
Качество: BDRip-AVC
Видео: MPEG-4, 1080x584, 23.976 fps ~2745 kbps
Звук:
1) E-AC3 2 ch, 48 kHz ~256 kbps - Dub
2) AC3 6 ch, 48 kHz ~384 kbps - MVO [Пифагор]
3) AC3 6 ch, 48 kHz ~384 kbps - MVO [Карусель]
4) E-AC3 2 ch, 48 kHz ~224 kbps - AVO [Гаврилов]
5) E-AC3 2 ch, 48 kHz ~224 kbps - AVO [Живов]
6) AC3 2 ch, 48 kHz ~192 kbps - AVO [Визгунов]
7) AC3 6 ch, 48 kHz ~448 kbps - Original

Media Info:
Скрытый текст
General
Unique ID : 200076622503862935170030655118929443633 (0x96855B18ABDE39736CD74417CB1E3B31)
Complete name : K:VIDEOПарк Юрского периода - Антология [1993-2015]2.Парк Юрского периода 2 - Затерянный мир (1997).mkv
Format : Matroska
Format version : Version 4 / Version 2
File size : 4.37 GiB
Duration : 2 h 8 min
Overall bit rate : 4 857 kb/s
Movie name : The Lost World - Jurassic Park (1997) BDRip-AVC от DrVampir
Encoded date : UTC 2018-05-17 12:24:59 / UTC 2018-05-17T01:07:59Z
Writing application : mkvmerge v23.0.0 ('The Bride Said No') 64-bit
Writing library : libebml v1.3.6 + libmatroska v1.4.9 / Lavf57.7.2
Cover : Yes
Attachments : Cover.jpg

Video
ID : 1
Format : AVC
Format/Info : Advanced Video Codec
Format profile : High@L4.1
Format settings : CABAC / 12 Ref Frames
Format settings, CABAC : Yes
Format settings, ReFrames : 12 frames
Codec ID : V_MPEG4/ISO/AVC
Duration : 2 h 8 min
Bit rate : 2 745 kb/s
Width : 1 080 pixels
Height : 584 pixels
Display aspect ratio : 1.85:1
Frame rate mode : Constant
Frame rate : 23.976 (24000/1001) FPS
Color space : YUV
Chroma subsampling : 4:2:0
Bit depth : 8 bits
Scan type : Progressive
Bits/(Pixel*Frame) : 0.182
Stream size : 2.38 GiB (55%)
Title : MPEG-4, 1080x584, 23.976 fps ~2745 kbps
Writing library : x264 core 155 r2893 b00bcaf
Encoding settings : cabac=1 / ref=12 / deblock=1:-2:-2 / analyse=0x3:0x133 / me=umh / subme=11 / psy=1 / psy_rd=1.00:0.10 / mixed_ref=1 / me_range=48 / chroma_me=1 / trellis=2 / 8x8dct=1 / cqm=0 / deadzone=21,11 / fast_pskip=0 / chroma_qp_offset=-3 / threads=6 / lookahead_threads=1 / sliced_threads=0 / nr=0 / decimate=1 / interlaced=0 / bluray_compat=0 / constrained_intra=0 / bframes=16 / b_pyramid=2 / b_adapt=2 / b_bias=0 / direct=3 / weightb=1 / open_gop=0 / weightp=2 / keyint=240 / keyint_min=24 / scenecut=40 / intra_refresh=0 / rc_lookahead=80 / rc=2pass / mbtree=0 / bitrate=2745 / ratetol=1.0 / qcomp=0.60 / qpmin=0 / qpmax=69 / qpstep=4 / cplxblur=20.0 / qblur=0.5 / vbv_maxrate=62500 / vbv_bufsize=78125 / nal_hrd=none / filler=0 / ip_ratio=1.40 / pb_ratio=1.30 / aq=1:1.00
Language : English
Default : Yes
Forced : No
Color range : Limited
Color primaries : BT.709
Transfer characteristics : BT.709
Matrix coefficients : BT.709
Statistics Tags Issue : mkvmerge v23.0.0 ('The Bride Said No') 64-bit 2018-05-17 12:24:59 / mkvmerge v23.0.0 ('The Bride Said No') 64-bit 2018-05-17 12:24:59 / UTC 2018-05-17T01:07:59Z
FromStats_BitRate : 2744199
FromStats_Duration : 02:08:40.296000000
FromStats_FrameCount : 185102
FromStats_StreamSize : 2648254396

Audio #1
ID : 2
Format : E-AC-3
Format/Info : Enhanced Audio Coding 3
Codec ID : A_EAC3
Duration : 2 h 8 min
Bit rate mode : Constant
Bit rate : 256 kb/s
Channel(s) : 2 channels
Channel positions : Front: L R
Sampling rate : 48.0 kHz
Frame rate : 187.500 FPS (256 SPF)
Compression mode : Lossy
Stream size : 236 MiB (5%)
Title : E-AC3 2 ch, 48 kHz ~256 kbps - Dub [Ист-Вест]
Language : Russian
Service kind : Complete Main
Default : Yes
Forced : No
Statistics Tags Issue : mkvmerge v23.0.0 ('The Bride Said No') 64-bit 2018-05-17 12:24:59 / mkvmerge v23.0.0 ('The Bride Said No') 64-bit 2018-05-17 12:24:59 / UTC 2018-05-17T01:07:59Z
FromStats_BitRate : 256000
FromStats_Duration : 02:08:46.720000000
FromStats_FrameCount : 241460
FromStats_StreamSize : 247255040

Audio #2
ID : 3
Format : AC-3
Format/Info : Audio Coding 3
Codec ID : A_AC3
Duration : 2 h 8 min
Bit rate mode : Constant
Bit rate : 384 kb/s
Channel(s) : 6 channels
Channel positions : Front: L C R, Side: L R, LFE
Sampling rate : 48.0 kHz
Frame rate : 31.250 FPS (1536 SPF)
Bit depth : 16 bits
Compression mode : Lossy
Stream size : 354 MiB (8%)
Title : AC3 6 ch, 48 kHz ~384 kbps - MVO [Пифагор]
Language : Russian
Service kind : Complete Main
Default : No
Forced : No
Statistics Tags Issue : mkvmerge v23.0.0 ('The Bride Said No') 64-bit 2018-05-17 12:24:59 / mkvmerge v23.0.0 ('The Bride Said No') 64-bit 2018-05-17 12:24:59 / UTC 2018-05-17T01:07:59Z
FromStats_BitRate : 384000
FromStats_Duration : 02:08:40.320000000
FromStats_FrameCount : 241260
FromStats_StreamSize : 370575360

Audio #3
ID : 4
Format : AC-3
Format/Info : Audio Coding 3
Codec ID : A_AC3
Duration : 2 h 8 min
Bit rate mode : Constant
Bit rate : 384 kb/s
Channel(s) : 6 channels
Channel positions : Front: L C R, Side: L R, LFE
Sampling rate : 48.0 kHz
Frame rate : 31.250 FPS (1536 SPF)
Bit depth : 16 bits
Compression mode : Lossy
Stream size : 354 MiB (8%)
Title : AC3 6 ch, 48 kHz ~384 kbps - MVO [Карусель]
Language : Russian
Service kind : Complete Main
Default : No
Forced : No
Statistics Tags Issue : mkvmerge v23.0.0 ('The Bride Said No') 64-bit 2018-05-17 12:24:59 / mkvmerge v23.0.0 ('The Bride Said No') 64-bit 2018-05-17 12:24:59 / UTC 2018-05-17T01:07:59Z
FromStats_BitRate : 384000
FromStats_Duration : 02:08:40.320000000
FromStats_FrameCount : 241260
FromStats_StreamSize : 370575360

Audio #4
ID : 5
Format : E-AC-3
Format/Info : Enhanced Audio Coding 3
Codec ID : A_EAC3
Duration : 2 h 8 min
Bit rate mode : Constant
Bit rate : 224 kb/s
Channel(s) : 2 channels
Channel positions : Front: L R
Sampling rate : 48.0 kHz
Frame rate : 187.500 FPS (256 SPF)
Compression mode : Lossy
Stream size : 206 MiB (5%)
Title : E-AC3 2 ch, 48 kHz ~224 kbps - AVO [Гаврилов]
Language : Russian
Service kind : Complete Main
Default : No
Forced : No
Statistics Tags Issue : mkvmerge v23.0.0 ('The Bride Said No') 64-bit 2018-05-17 12:24:59 / mkvmerge v23.0.0 ('The Bride Said No') 64-bit 2018-05-17 12:24:59 / UTC 2018-05-17T01:07:59Z
FromStats_BitRate : 224000
FromStats_Duration : 02:08:40.320000000
FromStats_FrameCount : 241260
FromStats_StreamSize : 216168960

Audio #5
ID : 6
Format : E-AC-3
Format/Info : Enhanced Audio Coding 3
Codec ID : A_EAC3
Duration : 2 h 8 min
Bit rate mode : Constant
Bit rate : 224 kb/s
Channel(s) : 2 channels
Channel positions : Front: L R
Sampling rate : 48.0 kHz
Frame rate : 187.500 FPS (256 SPF)
Compression mode : Lossy
Stream size : 206 MiB (5%)
Title : E-AC3 2 ch, 48 kHz ~224 kbps - AVO [Живов]
Language : Russian
Service kind : Complete Main
Default : No
Forced : No
Statistics Tags Issue : mkvmerge v23.0.0 ('The Bride Said No') 64-bit 2018-05-17 12:24:59 / mkvmerge v23.0.0 ('The Bride Said No') 64-bit 2018-05-17 12:24:59 / UTC 2018-05-17T01:07:59Z
FromStats_BitRate : 224000
FromStats_Duration : 02:08:40.320000000
FromStats_FrameCount : 241260
FromStats_StreamSize : 216168960

Audio #6
ID : 7
Format : AC-3
Format/Info : Audio Coding 3
Codec ID : A_AC3
Duration : 2 h 8 min
Bit rate mode : Constant
Bit rate : 192 kb/s
Channel(s) : 2 channels
Channel positions : Front: L R
Sampling rate : 48.0 kHz
Frame rate : 31.250 FPS (1536 SPF)
Bit depth : 16 bits
Compression mode : Lossy
Delay relative to video : 23 ms
Stream size : 177 MiB (4%)
Title : AC3 2 ch, 48 kHz ~192 kbps - AVO [Визгунов]
Language : Russian
Service kind : Complete Main
Default : No
Forced : No
Statistics Tags Issue : mkvmerge v23.0.0 ('The Bride Said No') 64-bit 2018-05-17 12:24:59 / mkvmerge v23.0.0 ('The Bride Said No') 64-bit 2018-05-17 12:24:59 / UTC 2018-05-17T01:07:59Z
FromStats_BitRate : 192000
FromStats_Duration : 02:08:40.224000000
FromStats_FrameCount : 241257
FromStats_StreamSize : 185285376

Audio #7
ID : 8
Format : AC-3
Format/Info : Audio Coding 3
Codec ID : A_AC3
Duration : 2 h 8 min
Bit rate mode : Constant
Bit rate : 448 kb/s
Channel(s) : 6 channels
Channel positions : Front: L C R, Side: L R, LFE
Sampling rate : 48.0 kHz
Frame rate : 31.250 FPS (1536 SPF)
Bit depth : 16 bits
Compression mode : Lossy
Stream size : 413 MiB (9%)
Title : AC3 6 ch, 48 kHz ~448 kbps - Original
Language : English
Service kind : Complete Main
Default : No
Forced : No
Statistics Tags Issue : mkvmerge v23.0.0 ('The Bride Said No') 64-bit 2018-05-17 12:24:59 / mkvmerge v23.0.0 ('The Bride Said No') 64-bit 2018-05-17 12:24:59 / UTC 2018-05-17T01:07:59Z
FromStats_BitRate : 448000
FromStats_Duration : 02:08:40.320000000
FromStats_FrameCount : 241260
FromStats_StreamSize : 432337920

Text #1
ID : 9
Format : ASS
Codec ID : S_TEXT/ASS
Codec ID/Info : Advanced Sub Station Alpha
Compression mode : Lossless
Language : Russian
Default : No
Forced : No
Statistics Tags Issue : mkvmerge v23.0.0 ('The Bride Said No') 64-bit 2018-05-17 12:24:59 / mkvmerge v23.0.0 ('The Bride Said No') 64-bit 2018-05-17 12:24:59 / UTC 2018-05-17T01:07:59Z
FromStats_BitRate : 111
FromStats_Duration : 02:00:30.394000000
FromStats_FrameCount : 1055
FromStats_StreamSize : 100708

Text #2
ID : 10
Format : ASS
Codec ID : S_TEXT/ASS
Codec ID/Info : Advanced Sub Station Alpha
Compression mode : Lossless
Language : Russian
Default : No
Forced : No
Statistics Tags Issue : mkvmerge v23.0.0 ('The Bride Said No') 64-bit 2018-05-17 12:24:59 / mkvmerge v23.0.0 ('The Bride Said No') 64-bit 2018-05-17 12:24:59 / UTC 2018-05-17T01:07:59Z
FromStats_BitRate : 108
FromStats_Duration : 01:59:51.230000000
FromStats_FrameCount : 1095
FromStats_StreamSize : 97320

Text #3
ID : 11
Format : ASS
Codec ID : S_TEXT/ASS
Codec ID/Info : Advanced Sub Station Alpha
Compression mode : Lossless
Language : Russian
Default : No
Forced : No
Statistics Tags Issue : mkvmerge v23.0.0 ('The Bride Said No') 64-bit 2018-05-17 12:24:59 / mkvmerge v23.0.0 ('The Bride Said No') 64-bit 2018-05-17 12:24:59 / UTC 2018-05-17T01:07:59Z
FromStats_BitRate : 132
FromStats_Duration : 02:01:06.993000000
FromStats_FrameCount : 1487
FromStats_StreamSize : 120695

Text #4
ID : 12
Format : ASS
Codec ID : S_TEXT/ASS
Codec ID/Info : Advanced Sub Station Alpha
Compression mode : Lossless
Language : English
Default : No
Forced : No
Statistics Tags Issue : mkvmerge v23.0.0 ('The Bride Said No') 64-bit 2018-05-17 12:24:59 / mkvmerge v23.0.0 ('The Bride Said No') 64-bit 2018-05-17 12:24:59 / UTC 2018-05-17T01:07:59Z
FromStats_BitRate : 75
FromStats_Duration : 01:59:51.270000000
FromStats_FrameCount : 1203
FromStats_StreamSize : 68270

Text #5
ID : 13
Format : ASS
Codec ID : S_TEXT/ASS
Codec ID/Info : Advanced Sub Station Alpha
Compression mode : Lossless
Language : English
Default : No
Forced : No
Statistics Tags Issue : mkvmerge v23.0.0 ('The Bride Said No') 64-bit 2018-05-17 12:24:59 / mkvmerge v23.0.0 ('The Bride Said No') 64-bit 2018-05-17 12:24:59 / UTC 2018-05-17T01:07:59Z
FromStats_BitRate : 88
FromStats_Duration : 02:01:14.732000000
FromStats_FrameCount : 1433
FromStats_StreamSize : 80448

Menu
00:00:00.000 : :00:00:00.000
00:04:13.587 : :00:04:13.587
00:08:38.309 : :00:08:38.309
00:16:11.929 : :00:16:11.929
00:21:43.135 : :00:21:43.135
00:33:22.459 : :00:33:22.459
00:41:48.798 : :00:41:48.798
00:47:58.000 : :00:47:58.000
00:53:40.592 : :00:53:40.592
01:04:46.674 : :01:04:46.674
01:12:59.709 : :01:12:59.709
01:20:47.885 : :01:20:47.885
01:26:18.965 : :01:26:18.965
01:31:53.383 : :01:31:53.383
01:42:23.638 : :01:42:23.637
01:50:52.646 : :01:50:52.688
01:52:13.936 : :01:52:13.936
01:58:10.875 : :01:58:10.875
01:59:51.601 : :01:59:51.601
02:01:56.434 : :02:01:56.434
Скриншоты

Парк Юрского периода 3 (2001)
Скрытый текст
Оригинальное название: Jurassic Park 3
Режиссер: Джо Джонстон
Год выпуска: 2001
Страна: США
Жанр: фантастика, боевик, триллер, приключения
Продолжительность: 01:32:20
Перевод: Дублированный, профессиональный многоголосый, авторский одноголосый.
Cубтитры: Русские, английские

В ролях: Сэм Нил, Уильям Х. Мэйси, Теа Леони, Алессандро Нивола, Тревор Морган, Майкл Джитер, Джон Дил, Брюс А. Янг, Лора Дерн, Тейлор Николс.

Описание: Герой Сэма Нила, палеонтолог Алан Грант, принимает предложение состоятельного предпринимателя совершить обзорную экскурсию над печально знаменитым островом Сорна на специально нанятом самолете. Мог ли доктор Грант предполагать, что страшная, непредвиденная катастрофа снова заставит его столкнуться со свирепыми плотоядными существами из прошлого?!

Более того, с момента ужасных событий картины «Парк Юрского периода» динозавры стали хитрее, сильнее и несоизмеримо опасней. Начинается новая, стремительная и жуткая гонка на выживание, в сравнении с которой все прошлые похождения доктора Гранта — лишь детские игрушки!



Файл
Кодек: h.264
Качество: BDRip-AVC
Видео: MPEG-4, 1080x584, 23.976 fps ~3576 kbps
Звук:
1) 48 KHz, AC3, 6 ch ~512 Kbps - Dub [Blu-ray CEE]
2) 48 KHz, AC3, 6 ch ~384 Kbps - MVO [Киномания]
3) 48 KHz, AC3, 6 ch ~384 Kbps - AVO [Гаврилов]
4) 48 KHz, AC3, 6 ch ~448 Kbps - AVO [Живов]
5) 48 KHz, AC3, 2 ch ~192 Kbps - AVO [Визгунов]
6) 48 KHz, AC3, 2 ch ~192 Kbps - AVO [Дольский]
7) 48 KHz, AC3, 6 ch ~512 Kbps - Original

Media Info:
Скрытый текст
General
Unique ID : 172335718662694035279829084451818329825 (0x81A6A6F06B2D7ED6858ED14B534A56E1)
Complete name : M:VideoПарк Юрского периода - Антология [1993-2015]3.Парк Юрского периода 3 (2001).mkv
Format : Matroska
Format version : Version 4 / Version 2
File size : 4.03 GiB
Duration : 1 h 32 min
Overall bit rate : 6 247 kb/s
Movie name : Jurassic Park 3 (2001) BDRip-AVC от DrVampir
Encoded date : UTC 2017-09-10 07:12:42 / UTC 2017-09-08T23:05:26Z
Writing application : mkvmerge v15.0.0 ('Duel with the Devil') 64-bit
Writing library : libebml v1.3.5 + libmatroska v1.4.5 / Lavf57.7.2
Cover : Yes
Attachments : Cover.jpg

Video
ID : 1
Format : AVC
Format/Info : Advanced Video Codec
Format profile : High@L4.1
Format settings, CABAC : Yes
Format settings, RefFrames : 10 frames
Codec ID : V_MPEG4/ISO/AVC
Duration : 1 h 32 min
Bit rate : 3 576 kb/s
Width : 1 080 pixels
Height : 584 pixels
Display aspect ratio : 1.85:1
Frame rate mode : Constant
Frame rate : 23.976 (24000/1001) FPS
Color space : YUV
Chroma subsampling : 4:2:0
Bit depth : 8 bits
Scan type : Progressive
Bits/(Pixel*Frame) : 0.236
Stream size : 2.26 GiB (56%)
Title : MPEG-4, 1080x584, 23.976 fps ~3576 kbps
Writing library : x264 core 148 r2708 86b7198
Encoding settings : cabac=1 / ref=10 / deblock=1:-3:-2 / analyse=0x3:0x133 / me=umh / subme=11 / psy=1 / psy_rd=1.00:0.15 / mixed_ref=1 / me_range=48 / chroma_me=1 / trellis=2 / 8x8dct=1 / cqm=0 / deadzone=21,11 / fast_pskip=0 / chroma_qp_offset=-3 / threads=6 / lookahead_threads=1 / sliced_threads=0 / nr=0 / decimate=1 / interlaced=0 / bluray_compat=0 / constrained_intra=0 / bframes=16 / b_pyramid=2 / b_adapt=2 / b_bias=0 / direct=3 / weightb=1 / open_gop=0 / weightp=2 / keyint=240 / keyint_min=24 / scenecut=40 / intra_refresh=0 / rc_lookahead=80 / rc=2pass / mbtree=0 / bitrate=3576 / ratetol=1.0 / qcomp=0.70 / qpmin=0 / qpmax=69 / qpstep=4 / cplxblur=20.0 / qblur=0.5 / vbv_maxrate=62500 / vbv_bufsize=78125 / nal_hrd=none / filler=0 / ip_ratio=1.40 / pb_ratio=1.30 / aq=1:1.00
Language : English
Default : Yes
Forced : No
Color range : Limited
Color primaries : BT.709
Transfer characteristics : BT.709
Matrix coefficients : BT.709
Statistics Tags Issue : mkvmerge v15.0.0 ('Duel with the Devil') 64-bit 2017-09-10 07:12:42 / mkvmerge v15.0.0 ('Duel with the Devil') 64-bit 2017-09-10 07:12:42 / UTC 2017-09-08T23:05:26Z
FromStats_BitRate : 3573995
FromStats_Duration : 01:32:20.535000000
FromStats_FrameCount : 132840
FromStats_StreamSize : 2475231178

Audio #1
ID : 2
Format : AC-3
Format/Info : Audio Coding 3
Format settings, Endianness : Big
Codec ID : A_AC3
Duration : 1 h 32 min
Bit rate mode : Constant
Bit rate : 512 kb/s
Channel(s) : 6 channels
Channel positions : Front: L C R, Side: L R, LFE
Sampling rate : 48.0 kHz
Frame rate : 31.250 FPS (1536 SPF)
Bit depth : 16 bits
Compression mode : Lossy
Delay relative to video : 37 ms
Stream size : 338 MiB (8%)
Title : 48 KHz, AC3, 6 ch ~512 Kbps - Dub [Blu-ray CEE]
Language : Russian
Service kind : Complete Main
Default : Yes
Forced : No
Statistics Tags Issue : mkvmerge v15.0.0 ('Duel with the Devil') 64-bit 2017-09-10 07:12:42 / mkvmerge v15.0.0 ('Duel with the Devil') 64-bit 2017-09-10 07:12:42 / UTC 2017-09-08T23:05:26Z
FromStats_BitRate : 512000
FromStats_Duration : 01:32:20.512000000
FromStats_FrameCount : 173141
FromStats_StreamSize : 354592768

Audio #2
ID : 3
Format : AC-3
Format/Info : Audio Coding 3
Format settings, Endianness : Big
Codec ID : A_AC3
Duration : 1 h 32 min
Bit rate mode : Constant
Bit rate : 384 kb/s
Channel(s) : 6 channels
Channel positions : Front: L C R, Side: L R, LFE
Sampling rate : 48.0 kHz
Frame rate : 31.250 FPS (1536 SPF)
Bit depth : 16 bits
Compression mode : Lossy
Delay relative to video : 475 ms
Stream size : 254 MiB (6%)
Title : 48 KHz, AC3, 6 ch ~384 Kbps - MVO [Киномания]
Language : Russian
Service kind : Complete Main
Default : No
Forced : No
Statistics Tags Issue : mkvmerge v15.0.0 ('Duel with the Devil') 64-bit 2017-09-10 07:12:42 / mkvmerge v15.0.0 ('Duel with the Devil') 64-bit 2017-09-10 07:12:42 / UTC 2017-09-08T23:05:26Z
FromStats_BitRate : 384000
FromStats_Duration : 01:32:17.888000000
FromStats_FrameCount : 173059
FromStats_StreamSize : 265818624

Audio #3
ID : 4
Format : AC-3
Format/Info : Audio Coding 3
Format settings, Endianness : Big
Codec ID : A_AC3
Duration : 1 h 32 min
Bit rate mode : Constant
Bit rate : 384 kb/s
Channel(s) : 6 channels
Channel positions : Front: L C R, Side: L R, LFE
Sampling rate : 48.0 kHz
Frame rate : 31.250 FPS (1536 SPF)
Bit depth : 16 bits
Compression mode : Lossy
Delay relative to video : 215 ms
Stream size : 254 MiB (6%)
Title : 48 KHz, AC3, 6 ch ~384 Kbps - AVO [Гаврилов]
Language : Russian
Service kind : Complete Main
Default : No
Forced : No
Statistics Tags Issue : mkvmerge v15.0.0 ('Duel with the Devil') 64-bit 2017-09-10 07:12:42 / mkvmerge v15.0.0 ('Duel with the Devil') 64-bit 2017-09-10 07:12:42 / UTC 2017-09-08T23:05:26Z
FromStats_BitRate : 384000
FromStats_Duration : 01:32:11.360000000
FromStats_FrameCount : 172855
FromStats_StreamSize : 265505280

Audio #4
ID : 5
Format : AC-3
Format/Info : Audio Coding 3
Format settings, Endianness : Big
Codec ID : A_AC3
Duration : 1 h 32 min
Bit rate mode : Constant
Bit rate : 448 kb/s
Channel(s) : 6 channels
Channel positions : Front: L C R, Side: L R, LFE
Sampling rate : 48.0 kHz
Frame rate : 31.250 FPS (1536 SPF)
Bit depth : 16 bits
Compression mode : Lossy
Delay relative to video : 768 ms
Stream size : 296 MiB (7%)
Title : 48 KHz, AC3, 6 ch ~448 Kbps - AVO [Живов]
Language : Russian
Service kind : Complete Main
Default : No
Forced : No
Statistics Tags Issue : mkvmerge v15.0.0 ('Duel with the Devil') 64-bit 2017-09-10 07:12:42 / mkvmerge v15.0.0 ('Duel with the Devil') 64-bit 2017-09-10 07:12:42 / UTC 2017-09-08T23:05:26Z
FromStats_BitRate : 448000
FromStats_Duration : 01:32:18.336000000
FromStats_FrameCount : 173073
FromStats_StreamSize : 310146816

Audio #5
ID : 6
Format : AC-3
Format/Info : Audio Coding 3
Format settings, Endianness : Big
Codec ID : A_AC3
Duration : 1 h 32 min
Bit rate mode : Constant
Bit rate : 192 kb/s
Channel(s) : 2 channels
Channel positions : Front: L R
Sampling rate : 48.0 kHz
Frame rate : 31.250 FPS (1536 SPF)
Bit depth : 16 bits
Compression mode : Lossy
Stream size : 127 MiB (3%)
Title : 48 KHz, AC3, 2 ch ~192 Kbps - AVO [Визгунов]
Language : Russian
Service kind : Complete Main
Default : No
Forced : No
Statistics Tags Issue : mkvmerge v15.0.0 ('Duel with the Devil') 64-bit 2017-09-10 07:12:42 / mkvmerge v15.0.0 ('Duel with the Devil') 64-bit 2017-09-10 07:12:42 / UTC 2017-09-08T23:05:26Z
FromStats_BitRate : 192000
FromStats_Duration : 01:32:11.008000000
FromStats_FrameCount : 172844
FromStats_StreamSize : 132744192

Audio #6
ID : 7
Format : AC-3
Format/Info : Audio Coding 3
Format settings, Endianness : Big
Codec ID : A_AC3
Duration : 1 h 32 min
Bit rate mode : Constant
Bit rate : 192 kb/s
Channel(s) : 2 channels
Channel positions : Front: L R
Sampling rate : 48.0 kHz
Frame rate : 31.250 FPS (1536 SPF)
Bit depth : 16 bits
Compression mode : Lossy
Stream size : 127 MiB (3%)
Title : 48 KHz, AC3, 2 ch ~192 Kbps - AVO [Дольский]
Language : Russian
Service kind : Complete Main
Default : No
Forced : No
Statistics Tags Issue : mkvmerge v15.0.0 ('Duel with the Devil') 64-bit 2017-09-10 07:12:42 / mkvmerge v15.0.0 ('Duel with the Devil') 64-bit 2017-09-10 07:12:42 / UTC 2017-09-08T23:05:26Z
FromStats_BitRate : 192000
FromStats_Duration : 01:32:11.008000000
FromStats_FrameCount : 172844
FromStats_StreamSize : 132744192

Audio #7
ID : 8
Format : AC-3
Format/Info : Audio Coding 3
Format settings, Endianness : Big
Codec ID : A_AC3
Duration : 1 h 32 min
Bit rate mode : Constant
Bit rate : 512 kb/s
Channel(s) : 6 channels
Channel positions : Front: L C R, Side: L R, LFE
Sampling rate : 48.0 kHz
Frame rate : 31.250 FPS (1536 SPF)
Bit depth : 16 bits
Compression mode : Lossy
Delay relative to video : 37 ms
Stream size : 338 MiB (8%)
Title : 48 KHz, AC3, 6 ch ~512 Kbps - Original
Language : English
Service kind : Complete Main
Default : No
Forced : No
Statistics Tags Issue : mkvmerge v15.0.0 ('Duel with the Devil') 64-bit 2017-09-10 07:12:42 / mkvmerge v15.0.0 ('Duel with the Devil') 64-bit 2017-09-10 07:12:42 / UTC 2017-09-08T23:05:26Z
FromStats_BitRate : 512000
FromStats_Duration : 01:32:20.512000000
FromStats_FrameCount : 173141
FromStats_StreamSize : 354592768

Text #1
ID : 9
Format : PGS
Muxing mode : zlib
Codec ID : S_HDMV/PGS
Codec ID/Info : Picture based subtitle format used on BDs/HD-DVDs
Language : Russian
Default : No
Forced : No
Statistics Tags Issue : mkvmerge v15.0.0 ('Duel with the Devil') 64-bit 2017-09-10 07:12:42 / mkvmerge v15.0.0 ('Duel with the Devil') 64-bit 2017-09-10 07:12:42 / UTC 2017-09-08T23:05:26Z
FromStats_BitRate : 160
FromStats_Duration : 01:31:31.027000000
FromStats_FrameCount : 12
FromStats_StreamSize : 110421

Text #2
ID : 10
Format : PGS
Muxing mode : zlib
Codec ID : S_HDMV/PGS
Codec ID/Info : Picture based subtitle format used on BDs/HD-DVDs
Language : Russian
Default : No
Forced : No
Statistics Tags Issue : mkvmerge v15.0.0 ('Duel with the Devil') 64-bit 2017-09-10 07:12:42 / mkvmerge v15.0.0 ('Duel with the Devil') 64-bit 2017-09-10 07:12:42 / UTC 2017-09-08T23:05:26Z
FromStats_BitRate : 61644
FromStats_Duration : 01:32:05.937000000
FromStats_FrameCount : 2848
FromStats_StreamSize : 42580238

Text #3
ID : 11
Format : PGS
Muxing mode : zlib
Codec ID : S_HDMV/PGS
Codec ID/Info : Picture based subtitle format used on BDs/HD-DVDs
Language : English
Default : No
Forced : No
Statistics Tags Issue : mkvmerge v15.0.0 ('Duel with the Devil') 64-bit 2017-09-10 07:12:42 / mkvmerge v15.0.0 ('Duel with the Devil') 64-bit 2017-09-10 07:12:42 / UTC 2017-09-08T23:05:26Z
FromStats_BitRate : 29507
FromStats_Duration : 01:22:48.714000000
FromStats_FrameCount : 1898
FromStats_StreamSize : 18327098

Text #4
ID : 12
Format : PGS
Muxing mode : zlib
Codec ID : S_HDMV/PGS
Codec ID/Info : Picture based subtitle format used on BDs/HD-DVDs
Language : English
Default : No
Forced : No
Statistics Tags Issue : mkvmerge v15.0.0 ('Duel with the Devil') 64-bit 2017-09-10 07:12:42 / mkvmerge v15.0.0 ('Duel with the Devil') 64-bit 2017-09-10 07:12:42 / UTC 2017-09-08T23:05:26Z
FromStats_BitRate : 71526
FromStats_Duration : 01:28:00.859000000
FromStats_FrameCount : 2894
FromStats_StreamSize : 47215321

Menu
00:00:00.000 : :parasail Into Peril
00:04:11.877 : :The Dinosaur Man
00:12:43.805 : :The Kirbys' Offer
00:17:26.796 : :Unhappy Landings
00:19:56.821 : :The Spinosaurus
00:26:27.377 : :Duel of the Dinosaurs
00:27:35.696 : :The Lost Boys
00:32:37.831 : :He's Alive
00:36:13.046 : :The Nest
00:40:11.993 : :Raptors
00:44:32.295 : :Grant's Rescuer
00:53:06.517 : :Family Reunion
00:56:48.614 : :The Best Intentions
00:58:55.574 : :The Birdcage
01:03:00.694 : :Billy's Gamble
01:11:44.759 : :A Call for Help
01:14:53.406 : :A Father's Courage
01:18:44.220 : :Call of the Raptor
01:21:29.802 : :Going Home
01:24:28.230 : :End Titles
Скриншоты

Мир Юрского периода (2015)
Скрытый текст
Оригинальное название: Jurassic World
Режиссер: Колин Треворроу
Год выпуска: 2015
Страна: США
Жанр: фантастика, приключения, боевик
Продолжительность: 02:04:21
Перевод: Дублированный, авторский одноголосый.
Cубтитры: Русские, английские

В ролях: Крис Пратт (Owen), Брайс Даллас Ховард (Claire), Ник Дж. Робинсон (Zach), Тай Симпкинс (Gray), Винсент Д’Онофрио (Hoskins), Ирфан Кхан (Masrani), Омар Си (Barry), Б.Д. Вонг (Dr. Henry Wu), Джейк Джонсон (Lowery), Джуди Грир (Karen), Кэти МакГрат (Zara), Лорен Лапкус (Vivian).

Описание: Тысячи людей спешат увидеть Мир Юрского периода, но безопасное на первый взгляд развлечение может обернуться угрозой для их жизней…



Файл
Кодек: h.264
Качество: BDRip-AVC
Видео: MPEG-4, 1080x540, 23.976 fps ~3072 kbps
Звук:
1) 48 KHz, AC3, 6 ch ~640 Kbps - Dub [Blu-ray EUR]
2) 48 KHz, AC3, 6 ch ~640 Kbps - AVO [Гаврилов]
3) 48 KHz, AC3, 6 ch ~640 Kbps - Original

Media Info:
Скрытый текст
General
Unique ID : 241655252964599698528041224604493739315 (0xB5CD1BD9AE5A6F8581F65A33C85AF533)
Complete name : M:VideoПарк Юрского периода - Антология [1993-2015]4.Мир Юрского периода (2015).mkv
Format : Matroska
Format version : Version 4 / Version 2
File size : 4.35 GiB
Duration : 2 h 4 min
Overall bit rate : 5 006 kb/s
Movie name : Jurassic World (2015)
Encoded date : UTC 2017-06-25 13:28:34 / UTC 2017-06-17T23:33:19Z
Writing application : mkvmerge v12.0.0 ('Trust / Lust') 64bit
Writing library : libebml v1.3.4 + libmatroska v1.4.5 / Lavf57.7.2
Cover : Yes
Attachments : Cover.png

Video
ID : 1
Format : AVC
Format/Info : Advanced Video Codec
Format profile : High@L4.1
Format settings, CABAC : Yes
Format settings, RefFrames : 12 frames
Codec ID : V_MPEG4/ISO/AVC
Duration : 2 h 4 min
Bit rate : 3 072 kb/s
Width : 1 080 pixels
Height : 540 pixels
Display aspect ratio : 2.000
Frame rate mode : Constant
Frame rate : 23.976 (24000/1001) FPS
Color space : YUV
Chroma subsampling : 4:2:0
Bit depth : 8 bits
Scan type : Progressive
Bits/(Pixel*Frame) : 0.220
Stream size : 2.59 GiB (60%)
Title : MPEG-4, 1080x540, 23.976 fps ~3072 kbps
Writing library : x264 core 148 r2708 86b7198
Encoding settings : cabac=1 / ref=12 / deblock=1:-3:-2 / analyse=0x3:0x133 / me=umh / subme=11 / psy=1 / psy_rd=1.00:0.15 / mixed_ref=1 / me_range=48 / chroma_me=1 / trellis=2 / 8x8dct=1 / cqm=0 / deadzone=21,11 / fast_pskip=0 / chroma_qp_offset=-3 / threads=6 / lookahead_threads=1 / sliced_threads=0 / nr=0 / decimate=1 / interlaced=0 / bluray_compat=0 / constrained_intra=0 / bframes=16 / b_pyramid=2 / b_adapt=2 / b_bias=0 / direct=3 / weightb=1 / open_gop=0 / weightp=2 / keyint=240 / keyint_min=24 / scenecut=40 / intra_refresh=0 / rc_lookahead=80 / rc=2pass / mbtree=0 / bitrate=3072 / ratetol=1.0 / qcomp=0.70 / qpmin=0 / qpmax=69 / qpstep=4 / cplxblur=20.0 / qblur=0.5 / vbv_maxrate=62500 / vbv_bufsize=78125 / nal_hrd=none / filler=0 / ip_ratio=1.40 / pb_ratio=1.30 / aq=1:1.00
Language : English
Default : Yes
Forced : No
Color range : Limited
Color primaries : BT.709
Transfer characteristics : BT.709
Matrix coefficients : BT.709
Statistics Tags Issue : mkvmerge v12.0.0 ('Trust / Lust') 64bit 2017-06-25 13:28:34 / mkvmerge v12.0.0 ('Trust / Lust') 64bit 2017-06-25 13:28:34 / UTC 2017-06-17T23:33:19Z
FromStats_BitRate : 3064136
FromStats_Duration : 02:04:21.121000000
FromStats_FrameCount : 178888
FromStats_StreamSize : 2857736683

Audio #1
ID : 2
Format : AC-3
Format/Info : Audio Coding 3
Format settings, Endianness : Big
Codec ID : A_AC3
Duration : 2 h 4 min
Bit rate mode : Constant
Bit rate : 640 kb/s
Channel(s) : 6 channels
Channel positions : Front: L C R, Side: L R, LFE
Sampling rate : 48.0 kHz
Frame rate : 31.250 FPS (1536 SPF)
Bit depth : 16 bits
Compression mode : Lossy
Delay relative to video : -5 ms
Stream size : 569 MiB (13%)
Title : 48 KHz, AC3, 6 ch ~640 Kbps - Dub [Blu-ray EUR]
Language : Russian
Service kind : Complete Main
Default : Yes
Forced : No
Statistics Tags Issue : mkvmerge v12.0.0 ('Trust / Lust') 64bit 2017-06-25 13:28:34 / mkvmerge v12.0.0 ('Trust / Lust') 64bit 2017-06-25 13:28:34 / UTC 2017-06-17T23:33:19Z
FromStats_BitRate : 640000
FromStats_Duration : 02:04:21.120000000
FromStats_FrameCount : 233160
FromStats_StreamSize : 596889600

Audio #2
ID : 3
Format : AC-3
Format/Info : Audio Coding 3
Format settings, Endianness : Big
Codec ID : A_AC3
Duration : 2 h 4 min
Bit rate mode : Constant
Bit rate : 640 kb/s
Channel(s) : 6 channels
Channel positions : Front: L C R, Side: L R, LFE
Sampling rate : 48.0 kHz
Frame rate : 31.250 FPS (1536 SPF)
Bit depth : 16 bits
Compression mode : Lossy
Stream size : 569 MiB (13%)
Title : 48 KHz, AC3, 6 ch ~640 Kbps - AVO [Гаврилов]
Language : Russian
Service kind : Complete Main
Default : No
Forced : No
Statistics Tags Issue : mkvmerge v12.0.0 ('Trust / Lust') 64bit 2017-06-25 13:28:34 / mkvmerge v12.0.0 ('Trust / Lust') 64bit 2017-06-25 13:28:34 / UTC 2017-06-17T23:33:19Z
FromStats_BitRate : 640000
FromStats_Duration : 02:04:21.152000000
FromStats_FrameCount : 233161
FromStats_StreamSize : 596892160

Audio #3
ID : 4
Format : AC-3
Format/Info : Audio Coding 3
Format settings, Endianness : Big
Codec ID : A_AC3
Duration : 2 h 4 min
Bit rate mode : Constant
Bit rate : 640 kb/s
Channel(s) : 6 channels
Channel positions : Front: L C R, Side: L R, LFE
Sampling rate : 48.0 kHz
Frame rate : 31.250 FPS (1536 SPF)
Bit depth : 16 bits
Compression mode : Lossy
Delay relative to video : -5 ms
Stream size : 569 MiB (13%)
Title : 48 KHz, AC3, 6 ch ~640 Kbps - Original
Language : English
Service kind : Complete Main
Default : No
Forced : No
Statistics Tags Issue : mkvmerge v12.0.0 ('Trust / Lust') 64bit 2017-06-25 13:28:34 / mkvmerge v12.0.0 ('Trust / Lust') 64bit 2017-06-25 13:28:34 / UTC 2017-06-17T23:33:19Z
FromStats_BitRate : 640000
FromStats_Duration : 02:04:21.120000000
FromStats_FrameCount : 233160
FromStats_StreamSize : 596889600

Text #1
ID : 5
Format : PGS
Muxing mode : zlib
Codec ID : S_HDMV/PGS
Codec ID/Info : Picture based subtitle format used on BDs/HD-DVDs
Language : Russian
Default : No
Forced : No
Statistics Tags Issue : mkvmerge v12.0.0 ('Trust / Lust') 64bit 2017-06-25 13:28:34 / mkvmerge v12.0.0 ('Trust / Lust') 64bit 2017-06-25 13:28:34 / UTC 2017-06-17T23:33:19Z
FromStats_BitRate : 8462
FromStats_Duration : 02:02:12.700000000
FromStats_FrameCount : 2454
FromStats_StreamSize : 7756239

Text #2
ID : 6
Format : PGS
Muxing mode : zlib
Codec ID : S_HDMV/PGS
Codec ID/Info : Picture based subtitle format used on BDs/HD-DVDs
Language : Russian
Default : No
Forced : No
Statistics Tags Issue : mkvmerge v12.0.0 ('Trust / Lust') 64bit 2017-06-25 13:28:34 / mkvmerge v12.0.0 ('Trust / Lust') 64bit 2017-06-25 13:28:34 / UTC 2017-06-17T23:33:19Z
FromStats_BitRate : 109
FromStats_Duration : 02:00:01.569000000
FromStats_FrameCount : 38
FromStats_StreamSize : 98353

Text #3
ID : 7
Format : PGS
Muxing mode : zlib
Codec ID : S_HDMV/PGS
Codec ID/Info : Picture based subtitle format used on BDs/HD-DVDs
Language : English
Default : No
Forced : No
Statistics Tags Issue : mkvmerge v12.0.0 ('Trust / Lust') 64bit 2017-06-25 13:28:34 / mkvmerge v12.0.0 ('Trust / Lust') 64bit 2017-06-25 13:28:34 / UTC 2017-06-17T23:33:19Z
FromStats_BitRate : 11126
FromStats_Duration : 01:53:44.109000000
FromStats_FrameCount : 2989
FromStats_StreamSize : 9490829

Menu
00:00:00.000 : :Chapter 1
00:06:59.169 : :Chapter 2
00:11:01.828 : :Chapter 3
00:18:28.441 : :Chapter 4
00:25:34.867 : :Chapter 5
00:31:20.837 : :Chapter 6
00:39:23.862 : :Chapter 7
00:44:07.854 : :Chapter 8
00:48:57.226 : :Chapter 9
00:55:51.139 : :Chapter 10
01:01:21.344 : :Chapter 11
01:09:50.561 : :Chapter 12
01:15:25.479 : :Chapter 13
01:23:51.860 : :Chapter 14
01:30:14.701 : :Chapter 15
01:36:45.425 : :Chapter 16
01:41:15.653 : :Chapter 17
01:47:35.282 : :Chapter 18
01:53:06.029 : :Chapter 19
01:55:37.639 : :Chapter 20
Скриншоты

Мир Юрского периода 2 (2018)
Скрытый текст
Оригинальное название: Jurassic World: Fallen Kingdom
Режиссер: Хуан Антонио Байона
Год выпуска: 2018
Страна: США
Жанр: фантастика, боевик, приключения
Продолжительность: 02:08:17
Перевод: Дублированный
Cубтитры: Русские, английские

В ролях: Крис Пратт, Брайс Даллас Ховард, Рейф Сполл, Джастис Смит, Даниэлла Пинеда, Джеймс Кромуэлл, Тоби Джонс, Тед Левайн, Джефф Голдблюм, Б.Д. Вонг, Джеральдин Чаплин, Изабелла Сермон и др.

Описание: На острове Нублар, где не так давно располагался парк развлечений с динозаврами, правит бал дикая природа, но внезапно пробудившийся вулкан угрожает стереть динозавров с лица земли. Бывшая управляющая парком Клэр Диринг переквалифицировалась в защитницу исчезающих видов и пытается сделать всё, чтобы спасти доисторических животных. На неё выходит Илай Миллс — доверенное лицо миллиардера Бенждамина Локвуда, который много лет назад был соратником профессора Хаммонда. Миллс предлагает Клэр, знакомой с системой безопасности парка, поехать на остров и помочь ему поймать нескольких особей, чтобы вывести их на другой безопасный остров. Клэр даже удается уговорить своего бывшего парня, дрессировщика Оуэена, принять участие в спасательной миссии, но по прибытии в парк, выясняется, что у Миллса совсем другие цели.



Файл
Кодек: h.264
Качество: BDRip-AVC
Видео: MPEG-4, 1080x452, 23.976 fps ~2945 kbps
Звук:
1) AC3 6 ch, 48 kHz ~384 kbps - Dub [iTunes]
2) E-AC3 6 ch, 48 kHz ~640 kbps - Original

Media Info:
Скрытый текст
General
Unique ID : 5597079381344364171794967774214184324 (0x435F551B7C05A329B90793549375D84)
Complete name : K:VIDEOПарк Юрского периода - Антология [1993-2018]5.Мир Юрского периода 2 (2018).mkv
Format : Matroska
Format version : Version 4 / Version 2
File size : 3.56 GiB
Duration : 2 h 8 min
Overall bit rate : 3 972 kb/s
Movie name : Jurassic World: Fallen Kingdom (2018) BDRip-AVC от DrVampir
Encoded date : UTC 2018-09-15 09:23:06 / UTC 2018-09-14T22:35:03Z
Writing application : mkvmerge v26.0.0 ('In The Game') 64-bit
Writing library : libebml v1.3.6 + libmatroska v1.4.9 / Lavf57.7.2
Cover : Yes
Attachments : Cover.jpg

Video
ID : 1
Format : AVC
Format/Info : Advanced Video Codec
Format profile : High@L4.1
Format settings : CABAC / 13 Ref Frames
Format settings, CABAC : Yes
Format settings, ReFrames : 13 frames
Codec ID : V_MPEG4/ISO/AVC
Duration : 2 h 8 min
Bit rate : 2 945 kb/s
Width : 1 080 pixels
Height : 452 pixels
Display aspect ratio : 2.40:1
Frame rate mode : Constant
Frame rate : 23.976 (24000/1001) FPS
Color space : YUV
Chroma subsampling : 4:2:0
Bit depth : 8 bits
Scan type : Progressive
Bits/(Pixel*Frame) : 0.252
Stream size : 2.57 GiB (72%)
Title : MPEG-4, 1080x452, 23.976 fps ~2945 kbps
Writing library : x264 core 155 r2901 7d0ff22
Encoding settings : cabac=1 / ref=13 / deblock=1:-2:-2 / analyse=0x3:0x133 / me=umh / subme=11 / psy=1 / psy_rd=1.00:0.10 / mixed_ref=1 / me_range=48 / chroma_me=1 / trellis=2 / 8x8dct=1 / cqm=0 / deadzone=21,11 / fast_pskip=0 / chroma_qp_offset=-3 / threads=6 / lookahead_threads=1 / sliced_threads=0 / nr=0 / decimate=1 / interlaced=0 / bluray_compat=0 / constrained_intra=0 / bframes=16 / b_pyramid=2 / b_adapt=2 / b_bias=0 / direct=3 / weightb=1 / open_gop=0 / weightp=2 / keyint=240 / keyint_min=24 / scenecut=40 / intra_refresh=0 / rc_lookahead=80 / rc=2pass / mbtree=0 / bitrate=2945 / ratetol=1.0 / qcomp=0.60 / qpmin=0 / qpmax=69 / qpstep=4 / cplxblur=20.0 / qblur=0.5 / vbv_maxrate=62500 / vbv_bufsize=78125 / nal_hrd=none / filler=0 / ip_ratio=1.40 / pb_ratio=1.30 / aq=1:1.00
Language : English
Default : Yes
Forced : No
Color range : Limited
Color primaries : BT.709
Transfer characteristics : BT.709
Matrix coefficients : BT.709
Statistics Tags Issue : mkvmerge v26.0.0 ('In The Game') 64-bit 2018-09-15 09:23:06 / mkvmerge v26.0.0 ('In The Game') 64-bit 2018-09-15 09:23:06 / UTC 2018-09-14T22:35:03Z
FromStats_BitRate : 2945231
FromStats_Duration : 02:08:17.690000000
FromStats_FrameCount : 184560
FromStats_StreamSize : 2833935042

Audio #1
ID : 2
Format : AC-3
Format/Info : Audio Coding 3
Codec ID : A_AC3
Duration : 2 h 8 min
Bit rate mode : Constant
Bit rate : 384 kb/s
Channel(s) : 6 channels
Channel positions : Front: L C R, Side: L R, LFE
Sampling rate : 48.0 kHz
Frame rate : 31.250 FPS (1536 SPF)
Bit depth : 16 bits
Compression mode : Lossy
Stream size : 352 MiB (10%)
Title : AC3 6 ch, 48 kHz ~384 kbps - Dub [iTunes]
Language : Russian
Service kind : Complete Main
Default : Yes
Forced : No
Statistics Tags Issue : mkvmerge v26.0.0 ('In The Game') 64-bit 2018-09-15 09:23:06 / mkvmerge v26.0.0 ('In The Game') 64-bit 2018-09-15 09:23:06 / UTC 2018-09-14T22:35:03Z
FromStats_BitRate : 384000
FromStats_Duration : 02:08:17.024000000
FromStats_FrameCount : 240532
FromStats_StreamSize : 369457152

Audio #2
ID : 3
Format : E-AC-3
Format/Info : Enhanced Audio Coding 3
Codec ID : A_EAC3
Duration : 2 h 8 min
Bit rate mode : Constant
Bit rate : 640 kb/s
Channel(s) : 6 channels
Channel positions : Front: L C R, Side: L R, LFE
Sampling rate : 48.0 kHz
Frame rate : 187.500 FPS (256 SPF)
Compression mode : Lossy
Stream size : 587 MiB (16%)
Title : E-AC3 6 ch, 48 kHz ~640 kbps - Original
Language : English
Service kind : Complete Main
Default : No
Forced : No
Statistics Tags Issue : mkvmerge v26.0.0 ('In The Game') 64-bit 2018-09-15 09:23:06 / mkvmerge v26.0.0 ('In The Game') 64-bit 2018-09-15 09:23:06 / UTC 2018-09-14T22:35:03Z
FromStats_BitRate : 640000
FromStats_Duration : 02:08:17.696000000
FromStats_FrameCount : 240553
FromStats_StreamSize : 615815680

Text #1
ID : 4
Format : ASS
Codec ID : S_TEXT/ASS
Codec ID/Info : Advanced Sub Station Alpha
Compression mode : Lossless
Language : Russian
Default : No
Forced : No
Statistics Tags Issue : mkvmerge v26.0.0 ('In The Game') 64-bit 2018-09-15 09:23:06 / mkvmerge v26.0.0 ('In The Game') 64-bit 2018-09-15 09:23:06 / UTC 2018-09-14T22:35:03Z
FromStats_BitRate : 120
FromStats_Duration : 01:56:23.400000000
FromStats_FrameCount : 1724
FromStats_StreamSize : 105061

Text #2
ID : 5
Format : ASS
Codec ID : S_TEXT/ASS
Codec ID/Info : Advanced Sub Station Alpha
Compression mode : Lossless
Language : English
Default : No
Forced : No
Statistics Tags Issue : mkvmerge v26.0.0 ('In The Game') 64-bit 2018-09-15 09:23:06 / mkvmerge v26.0.0 ('In The Game') 64-bit 2018-09-15 09:23:06 / UTC 2018-09-14T22:35:03Z
FromStats_BitRate : 78
FromStats_Duration : 01:55:55.039000000
FromStats_FrameCount : 1278
FromStats_StreamSize : 68496

Menu
00:00:00.000 : :Chapter 1
00:07:13.224 : :Chapter 2
00:12:01.554 : :Chapter 3
00:17:17.745 : :Chapter 4
00:21:17.193 : :Chapter 5
00:28:49.811 : :Chapter 6
00:35:04.769 : :Chapter 7
00:40:51.574 : :Chapter 8
00:46:32.498 : :Chapter 9
00:52:04.997 : :Chapter 10
01:00:59.197 : :Chapter 11
01:06:50.256 : :Chapter 12
01:11:07.638 : :Chapter 13
01:17:21.095 : :Chapter 14
01:26:55.210 : :Chapter 15
01:33:01.493 : :Chapter 16
01:42:55.878 : :Chapter 17
01:50:01.553 : :Chapter 18
01:54:56.223 : :Chapter 19
01:58:37.986 : :Chapter 20
Скриншоты
 

Вложения

  • 53,1 KB Просмотры: 1
    Личеров 0
    Сидеров 0
    Файлов 5
    Объем 20,7 GB

Привет!

Мы группа людей которые решили помочь другим в решении их проблем, а так же пользователям с поиском самых свежих и качественных инфопродуктов. За 4 с небольшим месяца мы создали этот форум на который заходят ежедневно тысячи человек и посещаемость постоянно растёт. Мы создали панель лицензирования для защиты PHP скриптов от воровства и SEO панель для мониторинга наших сайтов и выбора верной стратегии их развития. Мы надеемся что то что мы создали пригодится Вам и возможно Вы поможете нам развиваться и совершенствоваться вместе с Вами.

Статистика форума

Темы
406.538
Сообщения
464.649
Пользователи
83.256
Новый пользователь
Asasa33

Приложения форума для iOS и Android


У ркн там нет власти ;)
Приватные разговоры
Помощь Пользователи
    Вы не присоединились ни к одной комнате.