За последнюю неделю опубликовано 168 новых материалов.
Инструкция новичку Путеводитель по форуму Прокси для Telegram Показать подсказки , это бомба!

Скачать Парк Юрского периода 2: Затерянный мир / The Lost World: Jurassic Park (1997) DVDRip-AVC | D | Fullscreen бесплатно через торрент

  • Поучаствуй (в качестве покупателя) в любых пяти совместных покупках (кроме завершённых и "Моментальных") и получи группу "Новичок" навсегда -> ссылка на раздел
  • Получай до 480 рублей за каждого приглашенного пользователя!
    представляем Вам очередное расширение партнерской программы, подробности описаны тут -> ссылка
  • 90% материалов доступно к скачиванию после простой регистрации!
    Если же ты хочешь скачивать материалы без требования оставлять отзывы то получи группу "Новичок", 10 способов повышения описаны тут -> ссылка
  • К сожалению количество битых ссылок растет и мы уже не можем их оперативно восстанавливать поэтому просим помощи у каждого нашего пользователя.
    С сегодняшнего дня, за каждую восстановленную ссылку мы заплатим Вам.
    Подробнее тут -> ссылка
  • Перенесем твои заслуги с другого ресурса!
    Мы понимаем как сложно прокачивать аккаунты на форумах, вроде раскачал аккаунт, а тут появляется ресурс в 100 раз круче но тоже с системой прокачки и снова качать аккаунт...
    Предлагаем вам перенести Ваши заслуги на другом подобном ресурсе к нам.
    Подробности описаны тут -> ссылка
  • Вы можете получать по 2.5% с каждой покупки и продажи на маркете! Подробности в теме Партнёрская программа
Если Вы не хотите скачивать, Вы всегда можетепосмотретьонлайн, просто нажмите кнопку ниже :

Открыть плеер

Torrent_Bot

Торрент-Бот
Бот форума
4 Окт 2016
124
98
20



Информация о фильме
Название: Парк Юрского периода 2: Затерянный мир
Оригинальное название: The Lost World: Jurassic Park
Год выхода: 1997
Жанр: приключения, фантастика, семейный
Режиссер: Стивен Спилберг / Steven Spielberg
В ролях: Джефф Голдблюм, Джулианна Мур, Пит Постлетуэйт, Ричард Аттенборо, Винс Вон, Арлисс Ховард, Ванесса Ли Честер, Петер Стормаре, Харви Джейсон

О фильме:
События этого фильма разворачиваются через четыре года после того, что произошло в «Парке Юрского периода». На близлежащем острове динозавры выжили и адаптировались к дикой природе. Но вот находится Некто, кто хочет перевезти их на материк и заработать на этом, не понимая, какими могут быть последствия, и посылает на остров своих людей.
Джон Хэммонд, который потерял контроль над своей компанией, считает, что у него появился шанс исправить свои прошлые ошибки. Он, в свою очередь, снаряжает экспедицию во главе с Яном Малкольмом, чтобы появиться там до высадки наемников.
В результате происходящих событий две эти конфликтующие группы вынуждены объединиться перед лицом смертельной опасности. И, как потом выясняется, времени им отпущено совсем немного.



Страна: США
Продолжительность: 02:08:48
Перевод: Профессиональный (дублированный)

Файл
Качество: DVDRip-AVC
Формат: MKV
Видео: 718x480@718x524, 23.976 fps, MPEG-4 AVC, 2361 kbps avg
Аудио 1: Russian: 48 kHz, AC3, 2 ch, ~224 kbps avg
Аудио 2: English: 48 kHz, AC3, 6 ch, ~448 kbps avg
Субтитры: русские (full), английские

MediaInfo
General
Unique ID : 175248777004677023487964597315223550483 (0x83D7AFCDDE59B0D9B70B17AAD9CDFA13)
Complete name : D:The Lost World.Jurassic Park.1997.DVDRip-AVC.Fullscreen.Dub.mkv
Format : Matroska
Format version : Version 4
File size : 2.73 GiB
Duration : 2 h 8 min
Overall bit rate : 3 035 kb/s
Encoded date : UTC 2019-02-20 20:52:29
Writing application : mkvmerge v7.4.0 ('Circles') 64bit built on Dec 12 2014 12:19:56
Writing library : libebml v1.3.0 + libmatroska v1.4.1

Video
ID : 1
Format : AVC
Format/Info : Advanced Video Codec
Format profile : High@L4.1
Format settings : CABAC / 11 Ref Frames
Format settings, CABAC : Yes
Format settings, Reference : 11 frames
Codec ID : V_MPEG4/ISO/AVC
Duration : 2 h 8 min
Bit rate : 2 361 kb/s
Width : 718 pixels
Height : 480 pixels
Display aspect ratio : 4:3
Frame rate mode : Constant
Frame rate : 23.976 (24000/1001) FPS
Color space : YUV
Chroma subsampling : 4:2:0
Bit depth : 8 bits
Scan type : Progressive
Bits/(Pixel*Frame) : 0.286
Stream size : 2.12 GiB (78%)
Writing library : x264 core 157 r2935 545de2f
Encoding settings : cabac=1 / ref=11 / deblock=1:-3:-3 / analyse=0x3:0x113 / me=umh / subme=11 / psy=1 / psy_rd=1.00:0.00 / mixed_ref=1 / me_range=48 / chroma_me=1 / trellis=2 / 8x8dct=1 / cqm=0 / deadzone=21,11 / fast_pskip=0 / chroma_qp_offset=-2 / threads=6 / lookahead_threads=1 / sliced_threads=0 / nr=0 / decimate=0 / interlaced=0 / bluray_compat=0 / constrained_intra=0 / bframes=14 / b_pyramid=2 / b_adapt=2 / b_bias=0 / direct=3 / weightb=1 / open_gop=0 / weightp=2 / keyint=250 / keyint_min=23 / scenecut=40 / intra_refresh=0 / rc=2pass / mbtree=0 / bitrate=2361 / ratetol=1.0 / qcomp=0.60 / qpmin=0 / qpmax=69 / qpstep=4 / cplxblur=20.0 / qblur=0.5 / ip_ratio=1.40 / pb_ratio=1.30 / aq=1:1.00
Default : Yes
Forced : No

Audio #1
ID : 2
Format : AC-3
Format/Info : Audio Coding 3
Commercial name : Dolby Digital
Codec ID : A_AC3
Duration : 2 h 8 min
Bit rate mode : Constant
Bit rate : 224 kb/s
Channel(s) : 2 channels
Channel layout : L R
Sampling rate : 48.0 kHz
Frame rate : 31.250 FPS (1536 SPF)
Bit depth : 16 bits
Compression mode : Lossy
Stream size : 206 MiB (7%)
Title : Dub (Ист-Вест)
Language : Russian
Service kind : Complete Main
Default : Yes
Forced : No

Audio #2
ID : 3
Format : AC-3
Format/Info : Audio Coding 3
Commercial name : Dolby Digital
Codec ID : A_AC3
Duration : 2 h 8 min
Bit rate mode : Constant
Bit rate : 448 kb/s
Channel(s) : 6 channels
Channel layout : L R C LFE Ls Rs
Sampling rate : 48.0 kHz
Frame rate : 31.250 FPS (1536 SPF)
Bit depth : 16 bits
Compression mode : Lossy
Delay relative to video : 26 ms
Stream size : 413 MiB (15%)
Title : Original Eng
Language : English
Service kind : Complete Main
Default : No
Forced : No

Text #1
ID : 4
Format : UTF-8
Codec ID : S_TEXT/UTF8
Codec ID/Info : UTF-8 Plain Text
Duration : 1 h 59 min
Bit rate : 80 b/s
Count of elements : 1095
Stream size : 70.5 KiB (0%)
Title : Rus Sub
Language : Russian
Default : No
Forced : No

Text #2
ID : 5
Format : UTF-8
Codec ID : S_TEXT/UTF8
Codec ID/Info : UTF-8 Plain Text
Duration : 2 h 1 min
Bit rate : 51 b/s
Count of elements : 1433
Stream size : 45.5 KiB (0%)
Title : Eng Sub
Language : English
Default : No
Forced : No

Menu
00:00:00.000 : en:Isla Sorna (Main Titles)
00:04:13.000 : en:The Dinosaur Guy
00:08:37.266 : en:Our Last Chance
00:16:12.266 : en:The Doctor's Daughter
00:21:41.266 : en:The Lost World
00:33:21.266 : en:peter's Little Camping Trip
00:41:45.866 : en:The Backup Plan
00:47:54.866 : en:The Baby Rex
00:53:36.866 : en:Mommy's Very Angry
01:05:21.966 : en:Eddie Meets the Folks
01:12:55.299 : en:Death & Dieter Stark
01:20:43.299 : en:The T-Rex Intrudes
01:26:13.299 : en:Lurkers in the Long Grass
01:31:47.299 : en:The Welcoming Committee
01:42:17.299 : en:The Death Ship
01:50:44.899 : en:Taking the Kid
01:52:07.232 : en:Rampage
01:58:03.166 : en:The Crucial Shot
01:59:44.033 : en:Life Will Find a Way
02:01:49.433 : en:End Titles
Сравнения

Скриншоты
 

Вложения

  • 14,6 KB Просмотры: 0
    Личеров 0
    Сидеров 0
    Файлов 1
    Объем 2,7 GB
Ваш e-mail не будет опубликован. Он потребуется для подтверждения Вашего поста.
Оформление текста Нажмите «Ввод», чтобы отправить ответ.

Привет!

Мы группа людей которые решили помочь другим в решении их проблем, а так же пользователям с поиском самых свежих и качественных инфопродуктов. За 4 с небольшим месяца мы создали этот форум на который заходят ежедневно тысячи человек и посещаемость постоянно растёт. Мы создали панель лицензирования для защиты PHP скриптов от воровства и SEO панель для мониторинга наших сайтов и выбора верной стратегии их развития. Мы надеемся что то что мы создали пригодится Вам и возможно Вы поможете нам развиваться и совершенствоваться вместе с Вами.

Статистика форума

Темы
380.770
Сообщения
420.529
Пользователи
51.127
Новый пользователь
krikricrew

Приложения форума для iOS и Android


У ркн там нет власти ;)
Приватные разговоры
Помощь Пользователи
    Вы не присоединились ни к одной комнате.