За последнюю неделю опубликовано 49 новых материалов.
Инструкция новичку Путеводитель по форуму Прокси для Telegram Показать подсказки , это бомба!

Скачать Парижские тайны: Коллекция / Mystère à Paris: Collection (2011-2018) WEB-DLRip от NNMClub | P бесплатно через торрент

  • Поучаствуй (в качестве покупателя) в любых пяти совместных покупках (кроме завершённых и "Моментальных") и получи группу "Новичок" навсегда -> ссылка на раздел
  • Получай до 480 рублей за каждого приглашенного пользователя!
    представляем Вам очередное расширение партнерской программы, подробности описаны тут -> ссылка
  • 90% материалов доступно к скачиванию после простой регистрации!
    Если же ты хочешь скачивать материалы без требования оставлять отзывы то получи группу "Новичок", 10 способов повышения описаны тут -> ссылка
  • К сожалению количество битых ссылок растет и мы уже не можем их оперативно восстанавливать поэтому просим помощи у каждого нашего пользователя.
    С сегодняшнего дня, за каждую восстановленную ссылку мы заплатим Вам.
    Подробнее тут -> ссылка
  • Перенесем твои заслуги с другого ресурса!
    Мы понимаем как сложно прокачивать аккаунты на форумах, вроде раскачал аккаунт, а тут появляется ресурс в 100 раз круче но тоже с системой прокачки и снова качать аккаунт...
    Предлагаем вам перенести Ваши заслуги на другом подобном ресурсе к нам.
    Подробности описаны тут -> ссылка
  • Вы можете получать по 2.5% с каждой покупки и продажи на маркете! Подробности в теме Партнёрская программа
Если Вы не хотите скачивать, Вы всегда можетепосмотретьонлайн, просто нажмите кнопку ниже :

Открыть плеер

Torrent_Bot

Торрент-Бот
Бот форума
4 Окт 2016
93
160
20



Информация о фильме
Название: Парижские тайны: Коллекция
Оригинальное название: Mystère à Paris: Collection
Год выхода: 2011-2018
Жанр: Триллер, драма, криминал
Режиссер: Стефан Каппе, Леа Фазер
В ролях: Эмили Декьенн, Грегори Фетусси, Доминик Беснеар, Эдриэнн Поли, Мариус Коллуччи, Гай Леклюиз, Иван Гонсалес, Жак Вебер, Селин Виткок, Анжела Юмо, Матильда Мэй, Паулин Шевалье, Антуан Дюлери, Юго Беккер, Анн Бенуа, Фредерик Бурали, Лионель Астье, Скали Делпейрат, Клер Галопен, Тома Роше, Людивин де Честни, Флер Жеффрие, Франс Бойер, Жан-Мишель Лами, Дидье Винсон, Йен МакКэми, Джереми Стайб, Мари Денарно, Брюно Дебрандт, Кентин Байо, Грегуар Бонне, Камилла Жапи, Сильвен Кимен, Патрик Декам, Марк Боднар, Лорен Фернандез, Янн Бабиле, Николас Абрахам, Мишель Йонас, Кэролайн Питти, Одри Куотури, Соня Руграфф

О фильме:
Париж, конец 19-го века. По городу прокатывается серия загадочных и ужасных убийств, происходящих в самых известных и культурно значимых местах города. Странным образом в каждом преступлении замешана женщина. В 1892 году юная Диана приезжает в Париж из провинции, чтобы найти свою исчезнувшую сестру и стать танцовщицей кадрили. Постепенно знакомясь с миром высшего общества и открывая его с неожиданных для себя сторон, Диана сталкивается с чередой страшных убийств, которые происходят в наиболее знаменитых местах города: кабаре Мулен Руж, Опера Гарнье, Вандомская Площадь, Эйфелева Башня, Елисейский дворец, Университет Сорбонны и Лувр. Из-за того, что убийства так или иначе связаны с кабаре Мулен Руж и его танцорами, девушка понимает, что ей самой угрожает смертельная опасность. Кто скрывается за жестокими преступлениями? Удастся ли Диане спастись и устроить свою новую жизнь в прекрасной столице?


Страна: Франция
Студия: Marathon Productions
Продолжительность: 7 x ~ 01:27:00
Перевод: Профессиональный многоголосый (CLS Media)

Файл
Кодек: XviD
Качество: WEB-DLRip
Видео: 720x400, ~2000 Kbps, 25 fps
Звук: AC3, 2 ch, 192 Kbps

Содержание
Фильм 1. Тайна Мулен Руж / Mystère au Moulin-Rouge (2011)
Фильм 2. Тайна Эйфелевой башни /Mystère à la Tour Eiffel (2015)
Фильм 3. Тайна Гранд-опера / Mystère à l'Opéra (2015)
Фильм 4. Тайна Вандомской площади / Mystère place Vendôme (2017)
Фильм 5. Тайна Лувра / Mystère au Louvre (2017)
Фильм 6. Тайна Сорбонне / Mystère à la Sorbonne (2018)
Фильм 7. Тайна Елисейского Дворца / Mystère à l'Élysée (2018)
Примечания
Без рекламы!
Видеоряд: Локализованный (Русские надписи и.т.д.)
Mediainfo
General
Complete name : 01.Taina.Mulen.Ruzh.2011.WEB-DLRip.NNMClub.avi
Format : AVI
Format/Info : Audio Video Interleave
File size : 1.36 GiB
Duration : 1 h 26 min
Overall bit rate : 2 245 kb/s
Writing application : VirtualDubMod 1.5.10.3 | www.virtualdub-fr.org || (build 2550/release)
Writing library : VirtualDubMod build 2550/release

Video
ID : 0
Format : MPEG-4 Visual
Format profile : Advanced [email protected]
Format settings : BVOP2 / Custom Matrix
Format settings, BVOP : 2
Format settings, QPel : No
Format settings, GMC : No warppoints
Format settings, Matrix : Custom
Codec ID : XVID
Codec ID/Hint : XviD
Duration : 1 h 26 min
Bit rate : 2 044 kb/s
Width : 720 pixels
Height : 400 pixels
Display aspect ratio : 16:9
Frame rate : 25.000 FPS
Color space : YUV
Chroma subsampling : 4:2:0
Bit depth : 8 bits
Scan type : Progressive
Compression mode : Lossy
Bits/(Pixel*Frame) : 0.284
Stream size : 1.24 GiB (91%)
Writing library : XviD 69

Audio
ID : 1
Format : AC-3
Format/Info : Audio Coding 3
Commercial name : Dolby Digital
Codec ID : 2000
Duration : 1 h 26 min
Bit rate mode : Constant
Bit rate : 192 kb/s
Channel(s) : 2 channels
Channel layout : L R
Sampling rate : 48.0 kHz
Frame rate : 31.250 FPS (1536 SPF)
Compression mode : Lossy
Stream size : 119 MiB (9%)
Alignment : Split across interleaves
Interleave, duration : 40 ms (1.00 video frame)
Interleave, preload duratio : 500 ms
Service kind : Complete Main

Релиз от: NNMClub | karfagen1975
 

Вложения

  • 49,2 KB Просмотры: 0
    Личеров 0
    Сидеров 0
    Файлов 7
    Объем 9,5 GB

Привет!

Мы группа людей которые решили помочь другим в решении их проблем, а так же пользователям с поиском самых свежих и качественных инфопродуктов. За 4 с небольшим месяца мы создали этот форум на который заходят ежедневно тысячи человек и посещаемость постоянно растёт. Мы создали панель лицензирования для защиты PHP скриптов от воровства и SEO панель для мониторинга наших сайтов и выбора верной стратегии их развития. Мы надеемся что то что мы создали пригодится Вам и возможно Вы поможете нам развиваться и совершенствоваться вместе с Вами.

Статистика форума

Темы
406.640
Сообщения
465.116
Пользователи
84.572
Новый пользователь
x485

Приложения форума для iOS и Android


У ркн там нет власти ;)
Приватные разговоры
Помощь Пользователи
    Вы не присоединились ни к одной комнате.