За последнюю неделю опубликовано 58 новых материалов.
Инструкция новичку Путеводитель по форуму Прокси для Telegram Показать подсказки , это бомба!

Скачать Паразит / Kiseijuu: Sei no Kakuritsu [S01] (2014) BDRip от Deadmauvlad | СВ-Дубль бесплатно через торрент

  • Поучаствуй (в качестве покупателя) в любых пяти совместных покупках (кроме завершённых и "Моментальных") и получи группу "Новичок" навсегда -> ссылка на раздел
  • Получай до 480 рублей за каждого приглашенного пользователя!
    представляем Вам очередное расширение партнерской программы, подробности описаны тут -> ссылка
  • 90% материалов доступно к скачиванию после простой регистрации!
    Если же ты хочешь скачивать материалы без требования оставлять отзывы то получи группу "Новичок", 10 способов повышения описаны тут -> ссылка
  • К сожалению количество битых ссылок растет и мы уже не можем их оперативно восстанавливать поэтому просим помощи у каждого нашего пользователя.
    С сегодняшнего дня, за каждую восстановленную ссылку мы заплатим Вам.
    Подробнее тут -> ссылка
  • Перенесем твои заслуги с другого ресурса!
    Мы понимаем как сложно прокачивать аккаунты на форумах, вроде раскачал аккаунт, а тут появляется ресурс в 100 раз круче но тоже с системой прокачки и снова качать аккаунт...
    Предлагаем вам перенести Ваши заслуги на другом подобном ресурсе к нам.
    Подробности описаны тут -> ссылка
  • Вы можете получать по 2.5% с каждой покупки и продажи на маркете! Подробности в теме Партнёрская программа

Torrent_Bot

Торрент-Бот
Бот форума
4 Окт 2016
92
163
20


Информация о фильме
Название Паразит - Учение о жизни
Оригинальное название:: Kiseijuu: Sei no Kakuritsu
Год выхода: 2014
Жанр:ужасы, драма, фантастика
Режиссер: Шимизу Кеничи
В ролях: Масаки Аидзава, Такая Аояги, Дзюня Эноки, Иссэй Футамата, Синъя Хамадзоэ, Кана Ханадзава, Ая Хирано, Кадзухико Иноуэ, Акира Исида, Кэнитиро Охаси

О фильме:
Что делать, если ваша правая рука зажила своей жизнью? 16-летний Синъити Идзуми чуть с ума не сошел, но вовремя остановился. В руке простого японского школьника поселился паразит – из расы пришельцев, что прилетели поработить человечество. Только нормальные паразиты сразу выедают мозг через уши и нос, а Сина спасли наушники и чуткий сон, вот и сложилось необычное партнерство. Пообщавшись с сожителем, которого без затей назвал Правым, парень выработал простое правило – он питается за двоих, а напарник помогает решать проблемы, благо правая рука Идзуми теперь может творить чудеса на зависть мастерам каратэ!
Между тем другие паразиты, успешно захватившие тела жертв, решили разобраться с Синъити, ибо он знает их тайну, а сами пришельцы пока слабоваты для открытой войны. К счастью или нет, оказалось, что Правый – жуткий эгоист: собственное существование его волнует куда больше, чем цели всей расы, и незваный гость готов защищать своего хозяина. Так началась жизнь очередного тайного героя, в которой Син должен сражаться с инопланетным злом, скрываясь от людей, теряя родных и близких. Сколько главному герою еще нести свой тяжкий крест, не знает никто, в том числе и он сам. А вообще, на все человечество никаких паразитов не хватит!







Страна: Япония
Студия: Madhouse
Продолжительность: 24 серии x ~ 00:23:00
Перевод:(Профессианальный дублированный (СВ-Дубль) / (т/к FAN)



Качество: BDRip
Контейнер: AVI
Кодек: XviD
Видео: 720x400 (16:9), 23.976 fps, 1729 Кбит/сек (0.250 bit/pixel)
Аудио №1: AC-3, 48,0 КГц, 2 ch, 192 Кбит/сек, CBR | | СВ-Дубль
Аудио №2: AC-3, 48,0 КГц, 2 ch, 192 /сек, CBR | | Japan (Оригинал)
Русские Субтитры: Есть (Полный Перевод)


Список Серий
01. Метаморфоза
02. Демон во плоти
03. Пир
04. Растрёпанные волосы
05. Незнакомец
06. Новый рассвет
07. Когда отступит мрак ночной
08. Точка замерзания
09. По ту сторону добра и зла
10. Этот безумный мир
11. Синяя птица
12. Сердце
13. Здравствуй, грусть
14. Ген эгоизма
15. Жди дурного гостя
16. Счастливая семья
17. Похождение умирающего детектива
18. Больше, чем человек
19. Хладнокровие
20. Преступление и наказание
21. Тело и душа
22. Покой и пробуждение
23. Жизнь и клятва
24. Паразит
MediaInfo
Общее
Полное имя : [Deadmau- RAWS] Kiseijuu.Sei.no.Kakuritsu.BDRip.Deadmauvlad.RUS.JAP.S01x01.avi
Формат : AVI
Формат/Информация : Audio Video Interleave
Размер файла : 348 Мбайт
Продолжительность : 22 м. 50 с.
Общий поток : 2127 Кбит/сек
Название фильма : [Deadmau- RAWS] ПараZит.S01.RUS.DUB.JAP.Deadmauvlad.S01x01
Режиссёр : Encoder by Deadmauvlad
Жанр : Ужасы
Программа кодирования : VirtualDubMod 1.5.10.3 | www.virtualdub-fr.org || (build 2550/release)
Формат оригинала/Имя : Аниме
Авторское право : Encoder by Deadmauvlad
Примечание : Encoder by Deadmauvlad

Видео
Идентификатор : 0
Формат : MPEG-4 Visual
Профиль формата : Advanced [email protected]
Настройки формата : BVOP1 / Custom Matrix
Параметр BVOP формата : 1
Параметр QPel формата : Нет
Параметр GMC формата : Без точки перехода
Параметр матрицы формата : Выборочная
Идентификатор кодека : XVID
Идентификатор кодека/Подсказка : XviD
Продолжительность : 22 м. 50 с.
Битрейт : 1729 Кбит/сек
Ширина : 720 пикселей
Высота : 400 пикселей
Соотношение сторон : 16:9
Частота кадров : 23,976 (24000/1001) кадра/сек
Цветовое пространство : YUV
Субдискретизация насыщенности : 4:2:0
Битовая глубина : 8 бит
Тип развёртки : Прогрессивная
Метод сжатия : С потерями
Бит/(Пиксели*Кадры) : 0.250
Размер потока : 283 Мбайт (81%)
Библиотека кодирования : XviD 73

Аудио #1
Идентификатор : 1
Формат : AC-3
Формат/Информация : Audio Coding 3
Коммерческое название : Dolby Digital
Идентификатор кодека : 2000
Продолжительность : 22 м. 50 с.
Вид битрейта : Постоянный
Битрейт : 192 Кбит/сек
Каналы : 2 канала
Channel layout : L R
Частота : 48,0 КГц
Частота кадров : 31,250 кадров/сек (1536 SPF)
Битовая глубина : 16 бит
Метод сжатия : С потерями
Размер потока : 31,4 Мбайт (9%)
Выравнивание : Разделение по промежуткам
Продолжительность промежутка : 42 мс. (1,00 видеокадр)
Время предзагрузки промежутка : 500 мс.

Аудио #2
Идентификатор : 2
Формат : AC-3
Формат/Информация : Audio Coding 3
Коммерческое название : Dolby Digital
Идентификатор кодека : 2000
Продолжительность : 22 м. 50 с.
Вид битрейта : Постоянный
Битрейт : 192 Кбит/сек
Каналы : 2 канала
Channel layout : L R
Частота : 48,0 КГц
Частота кадров : 31,250 кадров/сек (1536 SPF)
Битовая глубина : 16 бит
Метод сжатия : С потерями
Размер потока : 31,4 Мбайт (9%)
Выравнивание : Разделение по промежуткам
Продолжительность промежутка : 42 мс. (1,00 видеокадр)
Время предзагрузки промежутка : 500 мс.
Скриншоты

Резервные

ЦитатаКто-то писал:

1. Kiseijuu: Sei no Kakuritsu BDRemux 1080p by antiBILLotic 146.66 GB
2. Исходные записи и сведение: Peter Rodgers

> Торрент обновлён. Перекачайте 18 серию (Остальные серии без изменений) <

 

Вложения

  • 26,1 KB Просмотры: 0
    Личеров 0
    Сидеров 0
    Файлов 48
    Объем 7,6 GB

Привет!

Мы группа людей которые решили помочь другим в решении их проблем, а так же пользователям с поиском самых свежих и качественных инфопродуктов. За 4 с небольшим месяца мы создали этот форум на который заходят ежедневно тысячи человек и посещаемость постоянно растёт. Мы создали панель лицензирования для защиты PHP скриптов от воровства и SEO панель для мониторинга наших сайтов и выбора верной стратегии их развития. Мы надеемся что то что мы создали пригодится Вам и возможно Вы поможете нам развиваться и совершенствоваться вместе с Вами.

Статистика форума

Темы
406.702
Сообщения
465.174
Пользователи
84.833
Новый пользователь
Nik423

Приложения форума для iOS и Android


У ркн там нет власти ;)
Приватные разговоры
Помощь Пользователи
    Вы не присоединились ни к одной комнате.