За последнюю неделю опубликовано 65 новых материалов.
Инструкция новичку Путеводитель по форуму Прокси для Telegram Показать подсказки , это бомба!

Скачать Папина дочка / Забытый принц / Le Prince Oublié (2020) BDRip 720p от Веселый Гном | Sub бесплатно через торрент

  • Поучаствуй (в качестве покупателя) в любых пяти совместных покупках (кроме завершённых и "Моментальных") и получи группу "Новичок" навсегда -> ссылка на раздел
  • Получай до 480 рублей за каждого приглашенного пользователя!
    представляем Вам очередное расширение партнерской программы, подробности описаны тут -> ссылка
  • 90% материалов доступно к скачиванию после простой регистрации!
    Если же ты хочешь скачивать материалы без требования оставлять отзывы то получи группу "Новичок", 10 способов повышения описаны тут -> ссылка
  • К сожалению количество битых ссылок растет и мы уже не можем их оперативно восстанавливать поэтому просим помощи у каждого нашего пользователя.
    С сегодняшнего дня, за каждую восстановленную ссылку мы заплатим Вам.
    Подробнее тут -> ссылка
  • Перенесем твои заслуги с другого ресурса!
    Мы понимаем как сложно прокачивать аккаунты на форумах, вроде раскачал аккаунт, а тут появляется ресурс в 100 раз круче но тоже с системой прокачки и снова качать аккаунт...
    Предлагаем вам перенести Ваши заслуги на другом подобном ресурсе к нам.
    Подробности описаны тут -> ссылка
  • Вы можете получать по 2.5% с каждой покупки и продажи на маркете! Подробности в теме Партнёрская программа
Если Вы не хотите скачивать, Вы всегда можетепосмотретьонлайн, просто нажмите кнопку ниже :

Открыть плеер

Torrent_Bot

Торрент-Бот
Бот форума
4 Окт 2016
92
163
20



Информация о фильме
Название: Папина дочка / Забытый принц
Оригинальное название: Le Prince Oublié
Год выхода: 2020
Жанр:фэнтези, комедия, приключения, семейный
Режиссер: Мишель Хазанавичус
В ролях: Омар Си, Кейла Фала, Сара Гэй, Беренис Бежо, Франсуа Дамиенс, Неотис Ронзон, Филипп Вие, Филипп Юшан, Лионель Лаже, Филипп Эриссон

О фильме:
Отец-одиночка обожает свою дочку: развлекает ее играми в слова и поговорки, рассказывает сказочные истории — здесь он придумал целый мир, в который они с дочкой отправляются перед сном. В нем он сказочный принц, спасающий свою маленькую принцессу от всех козней мира. Но дети имеют одну отвратительную особенность: они растут, что хуже того — взрослеют. И с взрослением меняются приоритеты. И вот уже место принца-папы занимает одногрупник по коллежу, а на дежурно-ласковое «я принес тебе миндальных печеееенек» папа слышит язвительное, в тон, «не говори со мной как с глууупой!» И тогда в волшебном мире наступает кризис, а принцу надо понять, как спасти свое королевство. Здесь ему поможет новый персонаж…

О переводе:
Эксклюзивный перевод на русский субтитрами, и вообще единственная, на данный момент, возможность посмотреть фильм без спама, не изучив, предварительно, французский язык. Уже становился жертвой плагиаторов и просто жуликов, приписывавших авторство себе. Не особо щепетильные, в вопросах нравственности, выкладчики породы «тащи, что плохо лежит», забывают указать авторство перевода, кромсают субтитры, вырезая копирайт, etc. Если находите это фильм с переводом субтитрами — знайте, что это релиз от Веселого Гнома, кто бы его и куда не притащил. Если посмотрите титры в конце фильма, вас ждет сюрприз.
Шустрым «релизерам»: При выкладке на других ресурсах (всего релиза или перевода) ссылка на автора обязательна!
Приятного просмотра.




Страна: Франция
Студия: Prélude, Pathé, StudioCanal
Продолжительность: 01:42:18
Перевод: Субтитры (Веселый Гном)

Файл
Кодек: AVC/H.264
Качество: BDRip 720p
Видео: 1280x536; 5,1 Mb/s
Звук: AAC, 6h, 471 kbps
Субтитры: Русский, вшитые


Скриншоты

Mediainfo:
General
Unique ID : 23875689543371104466329692246366675673 (0x11F64A610E2BA0B822E33F67BDEAE2D9)
Complete name : F:BUFERSБуферBousculer en µLe Prince Oublié. 2020. 720p II10 Le Prince Oublié°. 2020. 720p [перевод и субтитры - Веселый Гном].mkv
Format : Matroska
Format version : Version 4
File size : 3.95 GiB
Duration : 1 h 42 min
Overall bit rate : 5 531 kb/s
Encoded date : UTC 2020-08-07 14:17:10
Writing application : mkvmerge v29.0.0 ('Like It Or Not') 64-bit
Writing library : libebml v1.3.6 + libmatroska v1.4.9

Video
ID : 1
Format : AVC
Format/Info : Advanced Video Codec
Format profile : [email protected]
Format settings : CABAC / 1 Ref Frames
Format settings, CABAC : Yes
Format settings, ReFrames : 1 frame
Codec ID : V_MPEG4/ISO/AVC
Duration : 1 h 42 min
Bit rate : 5 100 kb/s
Width : 1 280 pixels
Height : 536 pixels
Display aspect ratio : 2.40:1
Frame rate mode : Constant
Frame rate : 23.976 (24000/1001) FPS
Color space : YUV
Chroma subsampling : 4:2:0
Bit depth : 8 bits
Scan type : Progressive
Bits/(Pixel*Frame) : 0.310
Stream size : 3.61 GiB (91%)
Writing library : x264 core 129
Encoding settings : cabac=1 / ref=1 / deblock=1:0:0 / analyse=0x1:0x131 / me=dia / subme=2 / psy=1 / psy_rd=1.00:0.00 / mixed_ref=0 / me_range=16 / chroma_me=1 / trellis=0 / 8x8dct=0 / cqm=0 / deadzone=21,11 / fast_pskip=1 / chroma_qp_offset=0 / threads=12 / lookahead_threads=2 / sliced_threads=0 / nr=0 / decimate=1 / interlaced=0 / bluray_compat=0 / constrained_intra=0 / bframes=0 / weightp=2 / keyint=250 / keyint_min=25 / scenecut=40 / intra_refresh=0 / rc_lookahead=40 / rc=abr / mbtree=1 / bitrate=5100 / ratetol=1.0 / qcomp=0.60 / qpmin=10 / qpmax=51 / qpstep=4 / ip_ratio=1.41 / aq=1:1.00
Language : French
Default : Yes
Forced : No

Audio
ID : 2
Format : AAC LC
Format/Info : Advanced Audio Codec Low Complexity
Codec ID : A_AAC-2
Duration : 1 h 42 min
Bit rate : 471 kb/s
Channel(s) : 6 channels
Channel layout : C L R Ls Rs LFE
Sampling rate : 48.0 kHz
Frame rate : 46.875 FPS (1024 SPF)
Compression mode : Lossy
Stream size : 345 MiB (9%)
Language : French
Default : Yes
Forced : No

Text #1
ID : 3
Format : UTF-8
Codec ID : S_TEXT/UTF8
Codec ID/Info : UTF-8 Plain Text
Duration : 1 h 42 min
Bit rate : 62 b/s
Count of elements : 1586
Stream size : 46.5 KiB (0%)
Language : French
Default : No
Forced : No

Text #2
ID : 4
Format : UTF-8
Codec ID : S_TEXT/UTF8
Codec ID/Info : UTF-8 Plain Text
Duration : 1 h 40 min
Bit rate : 78 b/s
Count of elements : 1369
Stream size : 58.1 KiB (0%)
Language : Russian
Default : Yes
Forced : No

Релиз от: ВЕСЕЛЫЙ ГНОМ
 

Вложения

  • 20,8 KB Просмотры: 0
    Личеров 0
    Сидеров 0
    Файлов 1
    Объем 4 GB

Привет!

Мы группа людей которые решили помочь другим в решении их проблем, а так же пользователям с поиском самых свежих и качественных инфопродуктов. За 4 с небольшим месяца мы создали этот форум на который заходят ежедневно тысячи человек и посещаемость постоянно растёт. Мы создали панель лицензирования для защиты PHP скриптов от воровства и SEO панель для мониторинга наших сайтов и выбора верной стратегии их развития. Мы надеемся что то что мы создали пригодится Вам и возможно Вы поможете нам развиваться и совершенствоваться вместе с Вами.

Статистика форума

Темы
406.674
Сообщения
465.119
Пользователи
84.731
Новый пользователь
LianSel

Приложения форума для iOS и Android


У ркн там нет власти ;)
Приватные разговоры
Помощь Пользователи
    Вы не присоединились ни к одной комнате.