За последнюю неделю опубликовано 30 новых материалов.
Инструкция новичку Путеводитель по форуму Прокси для Telegram Показать подсказки , это бомба!

Скачать Папа, сдохни (2018) BDRip 720p от ExKinoRay | Лицензия бесплатно через торрент

  • Поучаствуй (в качестве покупателя) в любых пяти совместных покупках (кроме завершённых и "Моментальных") и получи группу "Новичок" навсегда -> ссылка на раздел
  • Получай до 480 рублей за каждого приглашенного пользователя!
    представляем Вам очередное расширение партнерской программы, подробности описаны тут -> ссылка
  • 90% материалов доступно к скачиванию после простой регистрации!
    Если же ты хочешь скачивать материалы без требования оставлять отзывы то получи группу "Новичок", 10 способов повышения описаны тут -> ссылка
  • К сожалению количество битых ссылок растет и мы уже не можем их оперативно восстанавливать поэтому просим помощи у каждого нашего пользователя.
    С сегодняшнего дня, за каждую восстановленную ссылку мы заплатим Вам.
    Подробнее тут -> ссылка
  • Перенесем твои заслуги с другого ресурса!
    Мы понимаем как сложно прокачивать аккаунты на форумах, вроде раскачал аккаунт, а тут появляется ресурс в 100 раз круче но тоже с системой прокачки и снова качать аккаунт...
    Предлагаем вам перенести Ваши заслуги на другом подобном ресурсе к нам.
    Подробности описаны тут -> ссылка
  • Вы можете получать по 2.5% с каждой покупки и продажи на маркете! Подробности в теме Партнёрская программа
Если Вы не хотите скачивать, Вы всегда можетепосмотретьонлайн, просто нажмите кнопку ниже :

Открыть плеер

Torrent_Bot

Торрент-Бот
Бот форума
4 Окт 2016
93
160
20



Название: Папа, сдохни
Год выхода: 2018
Жанр: Комедия
Режиссер: Кирилл Соколов
В ролях: Виталий Хаев, Александр Кузнецов, Евгения Крегжде, Михаил Горевой, Елена Шевченко, Игорь Грабузов, Александр Домогаров мл., Владимир Афанасьев, Владимир Кондауров, Артём Башенин

Описание: Некогда Андрей был самым лучшим опером, но вынужден был оставить службу. Долгое время он переживал по этому поводу и всё чаще находил утешение в алкоголе. В какой-то момент Андрей понял, что хочет отомстить. И вот самый гнусный отец в мире, опер Андрей Геннадьевич, собирает у себя в квартире компанию отъявленных мерзавцев: мстительную дочь-актрису, озлобленного хулигана и обманутого мента. У каждого из них есть свои причины для мести.



Выпущено: Россия, Белое Зеркало
Продолжительность: 01:38:27
Язык: Русский | Лицензия BD

Формат: MKV
Качество: BDRip 720p
Видео: MPEG-4 AVC, 1280x536 (2.40:1), 23.976 fps, 8644 Kbps, 0.525 bit/pixel
Аудио : 48 kHz, AC3, 5.1, 640 Kbps | RUS |
Субтитры: Русские


ОтчетМедиаИнфо
General
Unique ID : 172402277941033196894216061630414504717 (0x81B378909EA12BAE822BBB37452AC30D)
Complete name : C:Dad.die.2018.BDRip.720.ExKinoRay.mkv
Format : Matroska
Format version : Version 2
File size : 6.51 GiB
Duration : 1 h 38 min
Overall bit rate : 9 473 kb/s
Movie name : Папа сдохни 2018 from ExKinoRay
Encoded date : UTC 2020-07-27 04:46:28
Writing application : mkvmerge v5.6.0 ('Kenya Kane') built on May 27 2012 16:44:04
Writing library : libebml v1.2.3 + libmatroska v1.3.0
Attachments : poster.png

Video
ID : 1
Format : AVC
Format/Info : Advanced Video Codec
Format profile : [email protected]
Format settings, CABAC : Yes
Format settings, ReFrames : 12 frames
Codec ID : V_MPEG4/ISO/AVC
Duration : 1 h 38 min
Bit rate : 8 644 kb/s
Width : 1 280 pixels
Height : 536 pixels
Display aspect ratio : 2.40:1
Frame rate mode : Constant
Frame rate : 23.976 (24000/1001) FPS
Color space : YUV
Chroma subsampling : 4:2:0
Bit depth : 8 bits
Scan type : Progressive
Bits/(Pixel*Frame) : 0.525
Stream size : 5.94 GiB (91%)
Writing library : x264 core 160 r3000 33f9e14
Encoding settings : cabac=1 / ref=12 / deblock=1:-3:-3 / analyse=0x3:0x133 / me=umh / subme=10 / psy=1 / psy_rd=1.20:0.00 / mixed_ref=1 / me_range=24 / chroma_me=1 / trellis=2 / 8x8dct=1 / cqm=0 / deadzone=21,11 / fast_pskip=0 / chroma_qp_offset=-2 / threads=17 / lookahead_threads=2 / sliced_threads=0 / nr=0 / decimate=0 / interlaced=0 / bluray_compat=0 / constrained_intra=0 / bframes=8 / b_pyramid=2 / b_adapt=2 / b_bias=0 / direct=3 / weightb=1 / open_gop=0 / weightp=2 / keyint=250 / keyint_min=23 / scenecut=40 / intra_refresh=0 / rc=crf / mbtree=0 / crf=16.5 / qcomp=0.60 / qpmin=0 / qpmax=69 / qpstep=4 / ip_ratio=1.40 / pb_ratio=1.30 / aq=3:0.90
Default : Yes
Forced : No
Color range : Limited
Matrix coefficients : BT.709

Audio
ID : 2
Format : AC-3
Format/Info : Audio Coding 3
Mode extension : CM (complete main)
Format settings, Endianness : Big
Codec ID : A_AC3
Duration : 1 h 38 min
Bit rate mode : Constant
Bit rate : 640 kb/s
Channel(s) : 6 channels
Channel positions : Front: L C R, Side: L R, LFE
Sampling rate : 48.0 kHz
Frame rate : 31.250 FPS (1536 spf)
Compression mode : Lossy
Stream size : 451 MiB (7%)
Title : Blu-Ray
Language : Russian
Default : Yes
Forced : No

Text
ID : 3
Format : UTF-8
Codec ID : S_TEXT/UTF8
Codec ID/Info : UTF-8 Plain Text
Title : Full
Language : Russian
Default : No
Forced : No

Menu
00:00:00.000 : en:Chapter 01
00:03:30.419 : en:Chapter 02
00:08:36.266 : en:Chapter 03
00:14:52.517 : en:Chapter 04
00:23:35.706 : en:Chapter 05
00:31:22.631 : en:Chapter 06
00:40:24.881 : en:Chapter 07
00:46:44.719 : en:Chapter 08
00:55:01.089 : en:Chapter 09
01:06:53.676 : en:Chapter 10
01:18:49.266 : en:Chapter 11
01:26:38.693 : en:Chapter 12






Релиз от:

Автор релиза:
 

Вложения

  • 33,5 KB Просмотры: 0
    Личеров 0
    Сидеров 0
    Файлов 1
    Объем 6,5 GB

Привет!

Мы группа людей которые решили помочь другим в решении их проблем, а так же пользователям с поиском самых свежих и качественных инфопродуктов. За 4 с небольшим месяца мы создали этот форум на который заходят ежедневно тысячи человек и посещаемость постоянно растёт. Мы создали панель лицензирования для защиты PHP скриптов от воровства и SEO панель для мониторинга наших сайтов и выбора верной стратегии их развития. Мы надеемся что то что мы создали пригодится Вам и возможно Вы поможете нам развиваться и совершенствоваться вместе с Вами.

Статистика форума

Темы
406.605
Сообщения
465.026
Пользователи
84.387
Новый пользователь
Сергей1672021

Приложения форума для iOS и Android


У ркн там нет власти ;)
Приватные разговоры
Помощь Пользователи
    Вы не присоединились ни к одной комнате.