За последнюю неделю опубликовано 30 новых материалов.
Инструкция новичку Путеводитель по форуму Прокси для Telegram Показать подсказки , это бомба!

Скачать Падение ангела / Angel Has Fallen (2019) UHD BDRemux 2160p от селезень | 4K | HDR | Лицензия бесплатно через торрент

  • Поучаствуй (в качестве покупателя) в любых пяти совместных покупках (кроме завершённых и "Моментальных") и получи группу "Новичок" навсегда -> ссылка на раздел
  • Получай до 480 рублей за каждого приглашенного пользователя!
    представляем Вам очередное расширение партнерской программы, подробности описаны тут -> ссылка
  • 90% материалов доступно к скачиванию после простой регистрации!
    Если же ты хочешь скачивать материалы без требования оставлять отзывы то получи группу "Новичок", 10 способов повышения описаны тут -> ссылка
  • К сожалению количество битых ссылок растет и мы уже не можем их оперативно восстанавливать поэтому просим помощи у каждого нашего пользователя.
    С сегодняшнего дня, за каждую восстановленную ссылку мы заплатим Вам.
    Подробнее тут -> ссылка
  • Перенесем твои заслуги с другого ресурса!
    Мы понимаем как сложно прокачивать аккаунты на форумах, вроде раскачал аккаунт, а тут появляется ресурс в 100 раз круче но тоже с системой прокачки и снова качать аккаунт...
    Предлагаем вам перенести Ваши заслуги на другом подобном ресурсе к нам.
    Подробности описаны тут -> ссылка
  • Вы можете получать по 2.5% с каждой покупки и продажи на маркете! Подробности в теме Партнёрская программа
Если Вы не хотите скачивать, Вы всегда можетепосмотретьонлайн, просто нажмите кнопку ниже :

Открыть плеер

Torrent_Bot

Торрент-Бот
Бот форума
4 Окт 2016
93
160
20


Информация о фильме
Название: Падение ангела
Оригинальное название: Angel Has Fallen
Год выхода: 2019
Жанр: Боевик
Режиссер: Рик Роман Во
В ролях: Джерард Батлер, Морган Фримен, Фредерик Шмидт, Дэнни Хьюстон, Рокки Уильямс, Пайпер Перабо, Джада Пинкетт Смит, Гарри Дитсон, Ник Нолти, Лэнс Реддик, Тим Блэйк Нельсон, Крис Браунинг, Екатерина Гусарова, Ори Феффер, Жасмин Хайд, Майкл Лэндис, Марк Арнольд, Керри Шейл, Эндрю Брук, Мартин Берман, Райан Олива, Дерек Сиоу



О фильме: Третья часть антитеррористической экшен-франшизы про высококлассного агента секретной службы США Майка Бэннинга (Джерард Батлер), который спасает от смертельного заговора первых лиц мировой политики. На этот раз целью террористов становится сам Бэннинг. Его подставляют и обвиняют в покушении на президента страны (Морган Фриман) — и теперь его разыскивают все спецслужбы. Чтобы очистить свое доброе имя, Бэннингу нужно самостоятельно раскрыть заговор.

Страна: США
Студия: Campbell Grobman Films, Eclectic Pictures, G-BASE
Продолжительность: 02:01:03
Перевод: Дублированный | Лицензия

Качество: BDRemux 2160p
Видео: 3840x2160 at 23.976 fps, MPEG-H HEVC HDR Video, 66800 kbps avg
Аудио #01: 48 kHz, DTS-HD MA, 5.1, 3804 Kbps | Дублированный | RUS |
Аудио #02: 48 kHz, AC3, 5.1, 640 Kbps | Дублированный | RUS |
Аудио #03: 48 kHz, TrueHD, 7.1, 3046 Kbps | Оригинал | ENG |
Аудио #04: 48 kHz, AC3, 5.1, 448 Kbps | Оригинал | ENG |
Субтитры: Русские (Full [Enigma]), английские



MI
General
Unique ID : 233888670716818774940769464491799017105 (0xAFF551C80AAF8A6AEA0FA4C371E4F691)
Complete name : D:Video222Angel.Has.Fallen.2019.BDREMUX.2160p.HDR.seleZen.mkv
Format : Matroska
Format version : Version 4
File size : 63.3 GiB
Duration : 2 h 1 min
Overall bit rate mode : Variable
Overall bit rate : 74.8 Mb/s
Movie name : Angel Has Fallen 2019 from селезень
Encoded date : UTC 2020-05-19 22:25:39
Writing application : mkvmerge v40.0.0 ('Old Town Road + Pony') 64-bit
Writing library : libebml v1.3.9 + libmatroska v1.5.2

Video
ID : 1
Format : HEVC
Format/Info : High Efficiency Video Coding
Format profile : Main [email protected]@High
HDR format : SMPTE ST 2086, HDR10 compatible
Codec ID : V_MPEGH/ISO/HEVC
Duration : 2 h 1 min
Bit rate : 66.8 Mb/s
Width : 3 840 pixels
Height : 2 160 pixels
Display aspect ratio : 16:9
Frame rate mode : Constant
Frame rate : 23.976 (24000/1001) FPS
Color space : YUV
Chroma subsampling : 4:2:0 (Type 2)
Bit depth : 10 bits
Bits/(Pixel*Frame) : 0.336
Stream size : 56.5 GiB (89%)
Language : English
Default : Yes
Forced : No
Color range : Limited
Color primaries : BT.2020
Transfer characteristics : PQ
Matrix coefficients : BT.2020 non-constant
Mastering display color pri : Display P3
Mastering display luminance : min: 0.0010 cd/m2, max: 1000 cd/m2
Maximum Content Light Level : 1000 cd/m2
Maximum Frame-Average Light : 634 cd/m2

Audio #1
ID : 2
Format : DTS XLL
Format/Info : Digital Theater Systems
Commercial name : DTS-HD Master Audio
Codec ID : A_DTS
Duration : 2 h 1 min
Bit rate mode : Variable
Bit rate : 3 804 kb/s
Channel(s) : 6 channels
Channel layout : C L R Ls Rs LFE
Sampling rate : 48.0 kHz
Frame rate : 93.750 FPS (512 SPF)
Bit depth : 24 bits
Compression mode : Lossless
Stream size : 3.22 GiB (5%)
Title : Dub [License]
Language : Russian
Default : Yes
Forced : Yes

Audio #2
ID : 3
Format : AC-3
Format/Info : Audio Coding 3
Commercial name : Dolby Digital
Codec ID : A_AC3
Duration : 2 h 1 min
Bit rate mode : Constant
Bit rate : 640 kb/s
Channel(s) : 6 channels
Channel layout : L R C LFE Ls Rs
Sampling rate : 48.0 kHz
Frame rate : 31.250 FPS (1536 SPF)
Compression mode : Lossy
Stream size : 554 MiB (1%)
Title : Dub [License]
Language : Russian
Service kind : Complete Main
Default : No
Forced : No

Audio #3
ID : 4
Format : MLP FBA 16-ch
Format/Info : Meridian Lossless Packing FBA with 16-channel presentation
Commercial name : Dolby TrueHD with Dolby Atmos
Codec ID : A_TRUEHD
Duration : 2 h 1 min
Bit rate mode : Variable
Bit rate : 3 046 kb/s
Maximum bit rate : 5 010 kb/s
Channel(s) : 8 channels
Channel layout : L R C LFE Ls Rs Lb Rb
Sampling rate : 48.0 kHz
Frame rate : 1 200.000 FPS (40 SPF)
Compression mode : Lossless
Stream size : 2.58 GiB (4%)
Title : Original
Language : English
Default : No
Forced : No
Number of dynamic objects : 11
Bed channel count : 1 channel
Bed channel configuration : LFE

Audio #4
ID : 5
Format : AC-3
Format/Info : Audio Coding 3
Commercial name : Dolby Digital
Codec ID : A_AC3
Duration : 2 h 1 min
Bit rate mode : Constant
Bit rate : 448 kb/s
Channel(s) : 6 channels
Channel layout : L R C LFE Ls Rs
Sampling rate : 48.0 kHz
Frame rate : 31.250 FPS (1536 SPF)
Compression mode : Lossy
Stream size : 388 MiB (1%)
Language : English
Service kind : Complete Main
Default : No
Forced : No

Text #1
ID : 6
Format : UTF-8
Codec ID : S_TEXT/UTF8
Codec ID/Info : UTF-8 Plain Text
Duration : 1 h 52 min
Bit rate : 98 b/s
Count of elements : 1454
Stream size : 81.6 KiB (0%)
Title : Full [Enigma]
Language : Russian
Default : No
Forced : No

Text #2
ID : 7
Format : UTF-8
Codec ID : S_TEXT/UTF8
Codec ID/Info : UTF-8 Plain Text
Duration : 1 h 51 min
Bit rate : 58 b/s
Count of elements : 1452
Stream size : 47.5 KiB (0%)
Title : Full
Language : English
Default : No
Forced : No

Text #3
ID : 8
Format : UTF-8
Codec ID : S_TEXT/UTF8
Codec ID/Info : UTF-8 Plain Text
Duration : 1 h 52 min
Bit rate : 63 b/s
Count of elements : 1580
Stream size : 52.7 KiB (0%)
Title : SDH
Language : English
Default : No
Forced : No

Menu
00:00:00.000 : en:Chapter 01
00:06:48.950 : en:Chapter 02
00:15:08.157 : en:Chapter 03
00:23:13.809 : en:Chapter 04
00:28:35.714 : en:Chapter 05
00:39:39.627 : en:Chapter 06
00:45:33.564 : en:Chapter 07
00:50:56.053 : en:Chapter 08
00:59:23.393 : en:Chapter 09
01:06:50.882 : en:Chapter 10
01:16:25.873 : en:Chapter 11
01:24:11.046 : en:Chapter 12
01:30:14.409 : en:Chapter 13
01:37:42.065 : en:Chapter 14
01:44:54.538 : en:Chapter 15
01:51:08.120 : en:Chapter 16

Релиз от:

 

Вложения

  • 80 KB Просмотры: 0
    Личеров 0
    Сидеров 0
    Файлов 1
    Объем 63,3 GB

Привет!

Мы группа людей которые решили помочь другим в решении их проблем, а так же пользователям с поиском самых свежих и качественных инфопродуктов. За 4 с небольшим месяца мы создали этот форум на который заходят ежедневно тысячи человек и посещаемость постоянно растёт. Мы создали панель лицензирования для защиты PHP скриптов от воровства и SEO панель для мониторинга наших сайтов и выбора верной стратегии их развития. Мы надеемся что то что мы создали пригодится Вам и возможно Вы поможете нам развиваться и совершенствоваться вместе с Вами.

Статистика форума

Темы
406.605
Сообщения
465.027
Пользователи
84.387
Новый пользователь
Сергей1672021

Приложения форума для iOS и Android


У ркн там нет власти ;)
Приватные разговоры
Помощь Пользователи
    Вы не присоединились ни к одной комнате.