За последнюю неделю опубликовано 63 новых материалов.
Инструкция новичку Путеводитель по форуму Прокси для Telegram Показать подсказки , это бомба!

Скачать Падение ангела / Angel Has Fallen (2019) BDRip 1080p от OlLanDGroup | Rus Transfer | Лицензия бесплатно через торрент

  • Поучаствуй (в качестве покупателя) в любых пяти совместных покупках (кроме завершённых и "Моментальных") и получи группу "Новичок" навсегда -> ссылка на раздел
  • Получай до 480 рублей за каждого приглашенного пользователя!
    представляем Вам очередное расширение партнерской программы, подробности описаны тут -> ссылка
  • 90% материалов доступно к скачиванию после простой регистрации!
    Если же ты хочешь скачивать материалы без требования оставлять отзывы то получи группу "Новичок", 10 способов повышения описаны тут -> ссылка
  • К сожалению количество битых ссылок растет и мы уже не можем их оперативно восстанавливать поэтому просим помощи у каждого нашего пользователя.
    С сегодняшнего дня, за каждую восстановленную ссылку мы заплатим Вам.
    Подробнее тут -> ссылка
  • Перенесем твои заслуги с другого ресурса!
    Мы понимаем как сложно прокачивать аккаунты на форумах, вроде раскачал аккаунт, а тут появляется ресурс в 100 раз круче но тоже с системой прокачки и снова качать аккаунт...
    Предлагаем вам перенести Ваши заслуги на другом подобном ресурсе к нам.
    Подробности описаны тут -> ссылка
  • Вы можете получать по 2.5% с каждой покупки и продажи на маркете! Подробности в теме Партнёрская программа
Если Вы не хотите скачивать, Вы всегда можетепосмотретьонлайн, просто нажмите кнопку ниже :

Открыть плеер

Torrent_Bot

Торрент-Бот
Бот форума
4 Окт 2016
92
160
20


Информация о фильме


Название: Падение ангела
Оригинальное название: Angel Has Fallen
Год выпуска: 2019
Жанр:Боевик
Выпущено: США, Campbell Grobman Films, Eclectic Pictures, G-BASE
Режиссер: Рик Роман Во
В ролях: Джерард Батлер, Морган Фримен, Фредерик Шмидт, Дэнни Хьюстон, Рокки Уильямс, Пайпер Перабо, Джада Пинкетт Смит, Гарри Дитсон, Ник Нолти, Лэнс Реддик, Тим Блэйк Нельсон, Крис Браунинг, Екатерина Гусарова, Ори Феффер, Жасмин Хайд, Майкл Лэндис, Марк Арнольд, Керри Шейл, Эндрю Брук, Мартин Берман, Райан Олива, Дерек Сиоу


О фильме: На президента США совершено покушение, главный обвиняемый — верный ангел-хранитель главы государства и агент секретной службы Майк Бэннинг. Скрываясь от ФБР, он должен найти тех, кто его подставил, и спасти страну и ее лидера от смертельной угрозы.





Качество: BDRip (1080p)
Видео: MPEG-4 AVC, 10783 Кбит/с, 1920x804, 24 кадр/с
Аудио: Русский (AC3, 6 ch, 640 Кбит/с), (DTS, 6 ch, 1509 Кбит/с)
Размер: 10.86 ГБ
Продолжительность: 02:00:36
Перевод: Дублированный
Субтитры: Русские

Озвучивание - (Лицензия)
Сохранены оригинальные чаптеры как на Blu-Ray.
За исходник, большое спасибо BLUEBIRD


x264
x264 [info]: frame I:1116 Avg QP:14.29 size:154842
x264 [info]: frame P:45276 Avg QP:15.76 size: 90685
x264 [info]: frame B:127262 Avg QP:17.75 size: 43365
x264 [info]: consecutive B-frames: 4.5% 8.2% 10.2% 20.3% 16.8% 30.3% 5.0% 1.7% 0.9% 0.6% 1.6%
x264 [info]: mb I I16..4: 39.1% 0.0% 60.9%
x264 [info]: mb P I16..4: 55.8% 0.0% 0.0% P16..4: 35.8% 0.0% 0.0% 0.0% 0.0% skip: 8.4%
x264 [info]: mb B I16..4: 30.3% 0.0% 0.0% B16..8: 25.6% 0.0% 0.0% direct:18.9% skip:25.2% L0:31.0% L1:36.8% BI:32.2%
x264 [info]: direct mvs spatial:96.9% temporal:3.1%
x264 [info]: coded y,uvDC,uvAC intra: 85.5% 61.7% 42.2% inter: 31.6% 31.5% 11.1%
x264 [info]: i16 v,h,dc,p: 18% 13% 53% 16%
x264 [info]: i4 v,h,dc,ddl,ddr,vr,hd,vl,hu: 20% 19% 15% 8% 9% 8% 8% 7% 7%
x264 [info]: i8c dc,h,v,p: 62% 15% 18% 5%
x264 [info]: Weighted P-Frames: Y:2.5% UV:1.6%
x264 [info]: kb/s:10832.41
Инфо-файл
Общее
Уникальный идентификатор : 235953254914330310356984907162639238255 (0xB182F1A42F5C6F02B19A956454A9846F)
Полное имя : D:ЗагрузкиAngel.Has.Fallen.2019.x264.BDRip.(1080p).OlLanDGroup.mkv
Формат : Matroska
Версия формата : Version 4 / Version 2
Размер файла : 10,9 Гбайт
Продолжительность : 2 ч. 0 м.
Общий поток : 12,9 Мбит/сек
Название фильма : Падение ангела.2019.Rip by: ollan
Дата кодирования : UTC 2020-05-23 20:02:26
Программа кодирования : mkvmerge v6.5.0 ('Isn't she lovely') built on Oct 20 2013 12:50:05
Библиотека кодирования : libebml v1.3.0 + libmatroska v1.4.1
Обложка : Yes
Attachments : Cover - Angel.Has.Fallen.png

Видео
Идентификатор : 1
Формат : AVC
Формат/Информация : Advanced Video Codec
Профиль формата : [email protected]
Настройки формата : CABAC / 5 Ref Frames
Параметр CABAC формата : Да
Параметр ReFrames формата : 5 кадров
Идентификатор кодека : V_MPEG4/ISO/AVC
Продолжительность : 2 ч. 0 м.
Битрейт : 10,8 Мбит/сек
Ширина : 1920 пикселей
Высота : 804 пикселя
Соотношение сторон : 2,40:1
Режим частоты кадров : Постоянный
Частота кадров : 24,000 кадра/сек
Цветовое пространство : YUV
Субдискретизация насыщенности : 4:2:0
Битовая глубина : 8 бит
Тип развёртки : Прогрессивная
Бит/(Пиксели*Кадры) : 0.291
Размер потока : 8,84 Гбайт (81%)
Библиотека кодирования : x264 core 146 r2538 121396c
Настройки программы : cabac=1 / ref=5 / deblock=1:-2:-3 / analyse=0x3:0x133 / me=umh / subme=11 / psy=1 / psy_rd=1.00:0.10 / mixed_ref=1 / me_range=64 / chroma_me=1 / trellis=2 / 8x8dct=1 / cqm=0 / deadzone=21,11 / fast_pskip=0 / chroma_qp_offset=-3 / threads=12 / lookahead_threads=3 / sliced_threads=0 / nr=0 / decimate=0 / interlaced=0 / bluray_compat=0 / constrained_intra=0 / bframes=10 / b_pyramid=2 / b_adapt=2 / b_bias=0 / direct=3 / weightb=1 / open_gop=0 / weightp=2 / keyint=240 / keyint_min=23 / scenecut=40 / intra_refresh=0 / rc_lookahead=40 / rc=2pass / mbtree=0 / bitrate=10783 / ratetol=1.0 / qcomp=0.60 / qpmin=0 / qpmax=69 / qpstep=4 / cplxblur=20.0 / qblur=0.5 / vbv_maxrate=50000 / vbv_bufsize=62500 / nal_hrd=none / filler=0 / ip_ratio=1.40 / pb_ratio=1.30 / aq=1:1.00
Язык : English
Default : Да
Forced : Нет

Аудио #1
Идентификатор : 2
Формат : AC-3
Формат/Информация : Audio Coding 3
Идентификатор кодека : A_AC3
Продолжительность : 2 ч. 0 м.
Вид битрейта : Постоянный
Битрейт : 640 Кбит/сек
Каналы : 6 каналов
Расположение каналов : Front: L C R, Side: L R, LFE
Частота : 48,0 КГц
Частота кадров : 31,250 кадров/сек (1536 SPF)
Битовая глубина : 16 бит
Метод сжатия : С потерями
Размер потока : 552 Мбайт (5%)
Заголовок : Лицензия
Язык : Russian
Service kind : Complete Main
Default : Да
Forced : Нет

Аудио #2
Идентификатор : 3
Формат : DTS
Формат/Информация : Digital Theater Systems
Идентификатор кодека : A_DTS
Продолжительность : 2 ч. 0 м.
Вид битрейта : Постоянный
Битрейт : 1509 Кбит/сек
Каналы : 6 каналов
Расположение каналов : Front: L C R, Side: L R, LFE
Частота : 48,0 КГц
Частота кадров : 93,750 кадра/сек (512 SPF)
Битовая глубина : 24 бит
Метод сжатия : С потерями
Размер потока : 1,27 Гбайт (12%)
Заголовок : Лицензия
Язык : Russian
Default : Нет
Forced : Нет

Текст
Идентификатор : 4
Формат : UTF-8
Идентификатор кодека : S_TEXT/UTF8
Идентификатор кодека/Информация : UTF-8 Plain Text
Заголовок : Full
Язык : Russian
Default : Нет
Forced : Нет

Меню
00:00:00.000 : en:Chapter 01
00:00:45.000 : en:Chapter 02
00:11:14.208 : en:Chapter 03
00:23:04.916 : en:Chapter 04
00:34:42.625 : en:Chapter 05
00:50:34.916 : en:Chapter 06
01:02:43.916 : en:Chapter 07
01:14:45.291 : en:Chapter 08
01:25:10.833 : en:Chapter 09
01:36:42.125 : en:Chapter 10
01:47:40.291 : en:Chapter 11
Скриншоты


Релиз от: Rip by:
 

Вложения

  • 28,2 KB Просмотры: 0
    Личеров 0
    Сидеров 0
    Файлов 1
    Объем 10,9 GB

Привет!

Мы группа людей которые решили помочь другим в решении их проблем, а так же пользователям с поиском самых свежих и качественных инфопродуктов. За 4 с небольшим месяца мы создали этот форум на который заходят ежедневно тысячи человек и посещаемость постоянно растёт. Мы создали панель лицензирования для защиты PHP скриптов от воровства и SEO панель для мониторинга наших сайтов и выбора верной стратегии их развития. Мы надеемся что то что мы создали пригодится Вам и возможно Вы поможете нам развиваться и совершенствоваться вместе с Вами.

Статистика форума

Темы
406.656
Сообщения
465.106
Пользователи
84.673
Новый пользователь
cltdyj

Приложения форума для iOS и Android


У ркн там нет власти ;)
Приватные разговоры
Помощь Пользователи
    Вы не присоединились ни к одной комнате.