За последнюю неделю опубликовано 48 новых материалов.
Инструкция новичку Путеводитель по форуму Прокси для Telegram Показать подсказки , это бомба!

Скачать Пациент Зеро / Нулевой пациент / Patient Zero (2018) WEB-DL 1080p от OlLanDGroup | HDRezka Studio бесплатно через торрент

  • Поучаствуй (в качестве покупателя) в любых пяти совместных покупках (кроме завершённых и "Моментальных") и получи группу "Новичок" навсегда -> ссылка на раздел
  • Получай до 480 рублей за каждого приглашенного пользователя!
    представляем Вам очередное расширение партнерской программы, подробности описаны тут -> ссылка
  • 90% материалов доступно к скачиванию после простой регистрации!
    Если же ты хочешь скачивать материалы без требования оставлять отзывы то получи группу "Новичок", 10 способов повышения описаны тут -> ссылка
  • К сожалению количество битых ссылок растет и мы уже не можем их оперативно восстанавливать поэтому просим помощи у каждого нашего пользователя.
    С сегодняшнего дня, за каждую восстановленную ссылку мы заплатим Вам.
    Подробнее тут -> ссылка
  • Перенесем твои заслуги с другого ресурса!
    Мы понимаем как сложно прокачивать аккаунты на форумах, вроде раскачал аккаунт, а тут появляется ресурс в 100 раз круче но тоже с системой прокачки и снова качать аккаунт...
    Предлагаем вам перенести Ваши заслуги на другом подобном ресурсе к нам.
    Подробности описаны тут -> ссылка
  • Вы можете получать по 2.5% с каждой покупки и продажи на маркете! Подробности в теме Партнёрская программа
Если Вы не хотите скачивать, Вы всегда можетепосмотретьонлайн, просто нажмите кнопку ниже :

Открыть плеер

Torrent_Bot

Торрент-Бот
Бот форума
4 Окт 2016
90
168
20

Пациент Зеро / Patient Zero




Год выпуска: 2018
Страна: Великобритания
Производство: Screen Gems, Vincent Newman Entertainment
Жанр: Ужасы, боевик, драма

Режиссёр: Штефан Руцовицки
В ролях: Натали Дормер, Мэтт Смит, Стэнли Туччи, Клайв Стэнден, Фредерик Шмидт, Агнесс Дейн, Джон Брэдли, Пиппа Беннетт-Уорнер, Колин МакФарлэйн, Дильяна Буклиева

Перевод: Профессиональный (многоголосый, закадровый) | HDRezka Studio
Субтитры: Английские (полные)
Реклама: Отсутствует

Описание: По Земле прокатился вирус, в результате которого большая часть населения превратилась в кровожадных и жестоких безумцев или, иными словами, в «инфицированных». Цивилизация погружается в хаос, человечество стоит на грани вымирания. Правда, некоторые люди имеют особый дар — понимать речь инфицированных и разговаривать с ними. Одним из немногих, кто наделен такой способностью, оказывается доктор Морган. Его жена тоже заражена. Морган решает найти так называемого пациента Зеро, с помощью которого можно создать антивирус и спасти человечество.



Качество: WEB-DL 1080p | Patient Zero 2018 1080p WEB-DL DD5 1 H264-CMRG
Продолжительность: 01:26:46

Формат: MKV
Видео кодек: MPEG-4 AVC
Аудио кодек: AC3
Видео: 1920x800 (2.40:1), 23,976 fps, x264 ~4 523 kbps avg, 0.123 bit/pixel
Аудио #1: 48 kHz, AC3 Dolby Digital, 2 (L,R) ch, ~192.00 kbps avg | RUS (HDRezka Studio)
Аудио #2: 48 kHz, AC3 Dolby Digital Plus, 3/2 (L,C,R,l,r) + LFE ch, ~384.00 kbps avg | ENG

Дата премьеры (мир): 14 августа 2018
Дата премьеры (РФ):


Релиз от:

MediaInfo
Общее
Уникальный идентификатор : 279089626822672300934557466298114062051 (0xD1F6B4FA7335FA0D44D5370CABAF36E3)
Полное имя : F:OlLanDGroupPatient.Zero.2018.WEB-DL(1080p).OlLanDGroup.mkv
Формат : Matroska
Версия формата : Version 4 / Version 2
Размер файла : 3,09 Гбайт
Продолжительность : 1 ч. 26 м.
Общий поток : 5101 Кбит/сек
Название фильма : Patient.Zero.2018 #TorpedoUK#
Дата кодирования : UTC 2018-08-30 04:22:53
Программа кодирования : mkvmerge v25.0.0 ('Prog Noir') 64-bit
Библиотека кодирования : libebml v1.3.6 + libmatroska v1.4.9

Видео
Идентификатор : 1
Формат : AVC
Формат/Информация : Advanced Video Codec
Профиль формата : [email protected]
Параметр CABAC формата : Да
Параметр ReFrames формата : 5 кадров
Идентификатор кодека : V_MPEG4/ISO/AVC
Продолжительность : 1 ч. 26 м.
Битрейт : 4523 Кбит/сек
Ширина : 1920 пикселей
Высота : 800 пикселей
Соотношение сторон : 2,40:1
Режим частоты кадров : Постоянный
Частота кадров : 23,976 (23976/1000) кадра/сек
Цветовое пространство : YUV
Субдискретизация насыщенности : 4:2:0
Битовая глубина : 8 бит
Тип развёртки : Прогрессивная
Бит/(Пиксели*Кадры) : 0.123
Размер потока : 2,74 Гбайт (89%)
Язык : English
Default : Да
Forced : Нет
Цветовой диапазон : Limited
Основные цвета : BT.709
Характеристики трансфера : BT.709
Коэффициенты матрицы : BT.709

Аудио #1
Идентификатор : 2
Формат : AC-3
Формат/Информация : Audio Coding 3
Расширение режима : CM (complete main)
Параметр Endianness формата : Big
Идентификатор кодека : A_AC3
Продолжительность : 1 ч. 26 м.
Вид битрейта : Постоянный
Битрейт : 192 Кбит/сек
Каналы : 2 канала
Расположение каналов : Front: L R
Частота : 48,0 КГц
Частота кадров : 31,250 кадров/сек (1536 spf)
Битовая глубина : 16 бит
Метод сжатия : С потерями
Задержка видео : -42 мс.
Размер потока : 119 Мбайт (4%)
Заголовок : MVO [HDRezka Studio]
Язык : Russian
Default : Да
Forced : Нет

Аудио #2
Идентификатор : 3
Формат : AC-3
Формат/Информация : Audio Coding 3
Расширение режима : CM (complete main)
Параметр Endianness формата : Big
Идентификатор кодека : A_AC3
Продолжительность : 1 ч. 26 м.
Вид битрейта : Постоянный
Битрейт : 384 Кбит/сек
Каналы : 6 каналов
Расположение каналов : Front: L C R, Side: L R, LFE
Частота : 48,0 КГц
Частота кадров : 31,250 кадров/сек (1536 spf)
Битовая глубина : 16 бит
Метод сжатия : С потерями
Задержка видео : -42 мс.
Размер потока : 238 Мбайт (8%)
Заголовок : Original
Язык : English
Default : Нет
Forced : Нет

Текст
Идентификатор : 4
Формат : UTF-8
Идентификатор кодека : S_TEXT/UTF8
Идентификатор кодека/Информация : UTF-8 Plain Text
Продолжительность : 1 ч. 21 м.
Битрейт : 65 бит/сек
Count of elements : 1085
Размер потока : 39,0 Кбайт (0%)
Заголовок : Full
Язык : English
Default : Нет
Forced : Нет

Меню
00:00:00.000 : en:1
00:04:13.545 : en:2
00:12:52.355 : en:3
00:15:21.379 : en:4
00:18:30.693 : en:5
00:25:32.489 : en:6
00:29:51.539 : en:7
00:36:42.408 : en:8
00:40:29.551 : en:9
00:43:31.900 : en:10
00:50:14.427 : en:11
00:55:46.884 : en:12
01:00:10.981 : en:13
01:05:01.187 : en:14
01:09:54.522 : en:15
01:15:22.850 : en:16
Скриншоты


 

Вложения

  • 16,4 KB Просмотры: 1
    Личеров 0
    Сидеров 0
    Файлов 1
    Объем 3,1 GB

Привет!

Мы группа людей которые решили помочь другим в решении их проблем, а так же пользователям с поиском самых свежих и качественных инфопродуктов. За 4 с небольшим месяца мы создали этот форум на который заходят ежедневно тысячи человек и посещаемость постоянно растёт. Мы создали панель лицензирования для защиты PHP скриптов от воровства и SEO панель для мониторинга наших сайтов и выбора верной стратегии их развития. Мы надеемся что то что мы создали пригодится Вам и возможно Вы поможете нам развиваться и совершенствоваться вместе с Вами.

Статистика форума

Темы
410.925
Сообщения
469.357
Пользователи
88.196
Новый пользователь
Arina_13478zxcbnm

Приложения форума для iOS и Android


У ркн там нет власти ;)
Приватные разговоры
Помощь Пользователи
    Вы не присоединились ни к одной комнате.