За последнюю неделю опубликовано 59 новых материалов.
Инструкция новичку Путеводитель по форуму Прокси для Telegram Показать подсказки , это бомба!

Скачать Ожидания шторма / Offering to the Storm / Ofrenda a la tormenta (2020) WEB-DL 1080p от MediaBit | L бесплатно через торрент

  • Поучаствуй (в качестве покупателя) в любых пяти совместных покупках (кроме завершённых и "Моментальных") и получи группу "Новичок" навсегда -> ссылка на раздел
  • Получай до 480 рублей за каждого приглашенного пользователя!
    представляем Вам очередное расширение партнерской программы, подробности описаны тут -> ссылка
  • 90% материалов доступно к скачиванию после простой регистрации!
    Если же ты хочешь скачивать материалы без требования оставлять отзывы то получи группу "Новичок", 10 способов повышения описаны тут -> ссылка
  • К сожалению количество битых ссылок растет и мы уже не можем их оперативно восстанавливать поэтому просим помощи у каждого нашего пользователя.
    С сегодняшнего дня, за каждую восстановленную ссылку мы заплатим Вам.
    Подробнее тут -> ссылка
  • Перенесем твои заслуги с другого ресурса!
    Мы понимаем как сложно прокачивать аккаунты на форумах, вроде раскачал аккаунт, а тут появляется ресурс в 100 раз круче но тоже с системой прокачки и снова качать аккаунт...
    Предлагаем вам перенести Ваши заслуги на другом подобном ресурсе к нам.
    Подробности описаны тут -> ссылка
  • Вы можете получать по 2.5% с каждой покупки и продажи на маркете! Подробности в теме Партнёрская программа
Если Вы не хотите скачивать, Вы всегда можетепосмотретьонлайн, просто нажмите кнопку ниже :

Открыть плеер

Torrent_Bot

Торрент-Бот
Бот форума
4 Окт 2016
102
157
20



Информация о фильме
Название: Ожидания шторма
Оригинальное название: Offering to the Storm / Ofrenda a la tormenta
Год выхода: 2020
Жанр: Триллер, криминал
Режиссер: Фернандо Гонзалез Молина
В ролях: Марта Этура, Леонардо Сбаралья, Пако Тоус, Педро Касабланк, Ана Вахенер, Марта Ларральде, Альваро Сервантес, Эльвира Мингес, Иманоль Ариас, Суси Санчес

О фильме: Амайя расследует несколько подозрительных детских смертей связанных с ужасными ритуалами. Тем временем окружающие ее люди, очень рискуют, так как не подозревают, какой опасности они подвергают себя, находясь рядом с Амайей. Это третья часть "Базтанской трилогии".



Страна: Испания, Германия
Студия: ARTE, Atresmedia Cine, Nadcon Film
Продолжительность: 02:20:00
Перевод: Любительский многоголосый | @MUZOBOZ@

Файл
Кодек: MPEG-4 AVC
Качество: WEB-DL 1080p
Видео: 2490 Кбит/с, 1920x1080, 24.000 кадр/с
Звук:
Аудио #1: AC3, 48 Гц, 448 Кбит/сек, 6 ch (L C R, + L R, LFE) | MVO | @MUZOBOZ@
Аудио #2: AC3, 48 Гц, 640 Кбит/сек, 6 ch (L C R, + L R, LFE) | DUB | Английский
Аудио #3: AC3, 48 Гц, 640 Кбит/сек, 6 ch (L C R, + L R, LFE) | Испанский
Субтитры: Pусские, английские


MI
Общее
Уникальный идентификатор : 152527617101413992386670631680108274323 (0x72BFC02190B149256848E1A551C22293)
Полное имя : D:ТоррентыOffering.to.the.Storm.2020.SPANISH.1080p.NF.WEBRip.DDP5.1.x264-CMOzhidanie.shtorma.2020.x264.WEB-DL(1080p)-MediaBit.mkv
Формат : Matroska
Версия формата : Version 4
Размер файла : 4,10 Гбайт
Продолжительность : 2 ч. 19 м.
Режим общего битрейта : Переменный
Общий поток : 4 201 Кбит/сек
Название фильма : Bitru представляет - Ожидания шторма / Offering to the Storm / Ofrenda a la tormenta (2020)
Дата кодирования : UTC 2020-08-01 14:55:41
Программа кодирования : mkvmerge v25.0.0 ('Prog Noir') 64-bit
Библиотека кодирования : libebml v1.3.6 + libmatroska v1.4.9
Attachments : OfrendaTormenta.jpg

Видео
Идентификатор : 1
Формат : AVC
Формат/Информация : Advanced Video Codec
Профиль формата : Main@L4
Настройки формата : CABAC / 3 Ref Frames
Параметр CABAC формата : Да
Параметр RefFrames формата : 3 кадра
Идентификатор кодека : V_MPEG4/ISO/AVC
Продолжительность : 2 ч. 19 м.
Вид битрейта : Переменный
Битрейт : 2 490 Кбит/сек
Максимальный битрейт : 3 735 Кбит/сек
Ширина : 1 920 пикселей
Высота : 1 080 пикселей
Соотношение сторон : 16:9
Режим частоты кадров : Постоянный
Частота кадров : 24,000 кадра/сек
Цветовое пространство : YUV
Субдискретизация насыщенности : 4:2:0
Битовая глубина : 8 бит
Тип развёртки : Прогрессивная
Бит/(Пиксели*Кадры) : 0.050
Размер потока : 2,41 Гбайт (59%)
Заголовок : MediaBit
Библиотека кодирования : x264 core 148 r2717 0d2410d
Настройки программы : cabac=1 / ref=3 / deblock=1:0:0 / analyse=0x1:0x111 / me=umh / subme=10 / psy=1 / psy_rd=1.00:0.00 / mixed_ref=1 / me_range=24 / chroma_me=1 / trellis=2 / 8x8dct=0 / cqm=0 / deadzone=21,11 / fast_pskip=1 / chroma_qp_offset=-2 / threads=8 / lookahead_threads=1 / sliced_threads=0 / nr=0 / decimate=1 / interlaced=0 / bluray_compat=0 / stitchable=1 / constrained_intra=0 / bframes=2 / b_pyramid=0 / b_adapt=2 / b_bias=0 / direct=3 / weightb=1 / open_gop=0 / weightp=2 / keyint=250 / keyint_min=24 / scenecut=0 / intra_refresh=0 / rc_lookahead=48 / rc=2pass / mbtree=1 / bitrate=2490 / ratetol=1.0 / qcomp=0.50 / qpmin=6 / qpmax=51 / qpstep=4 / cplxblur=20.0 / qblur=0.5 / vbv_maxrate=3735 / vbv_bufsize=4980 / nal_hrd=vbr / filler=0 / ip_ratio=1.40 / aq=1:1.00
Язык : Spanish
Default : Да
Forced : Нет

Аудио #1
Идентификатор : 2
Формат : AC-3
Формат/Информация : Audio Coding 3
Коммерческое название : Dolby Digital
Идентификатор кодека : A_AC3
Продолжительность : 2 ч. 19 м.
Вид битрейта : Постоянный
Битрейт : 448 Кбит/сек
Каналы : 6 каналов
Channel layout : L R C LFE Ls Rs
Частота : 48,0 КГц
Частота кадров : 31,250 кадров/сек (1536 SPF)
Метод сжатия : С потерями
Размер потока : 447 Мбайт (11%)
Заголовок : MVO | @MUZOBOZ@ / MediaBit
Service kind : Complete Main
Default : Да
Forced : Нет

Аудио #2
Идентификатор : 3
Формат : AC-3
Формат/Информация : Audio Coding 3
Коммерческое название : Dolby Digital
Идентификатор кодека : A_AC3
Продолжительность : 2 ч. 19 м.
Вид битрейта : Постоянный
Битрейт : 640 Кбит/сек
Каналы : 6 каналов
Channel layout : L R C LFE Ls Rs
Частота : 48,0 КГц
Частота кадров : 31,250 кадров/сек (1536 SPF)
Метод сжатия : С потерями
Размер потока : 639 Мбайт (15%)
Заголовок : DUB
Язык : English
Service kind : Complete Main
Default : Нет
Forced : Нет

Аудио #3
Идентификатор : 4
Формат : AC-3
Формат/Информация : Audio Coding 3
Коммерческое название : Dolby Digital
Идентификатор кодека : A_AC3
Продолжительность : 2 ч. 19 м.
Вид битрейта : Постоянный
Битрейт : 640 Кбит/сек
Каналы : 6 каналов
Channel layout : L R C LFE Ls Rs
Частота : 48,0 КГц
Частота кадров : 31,250 кадров/сек (1536 SPF)
Метод сжатия : С потерями
Размер потока : 639 Мбайт (15%)
Заголовок : Original
Язык : Spanish
Service kind : Complete Main
Default : Нет
Forced : Нет

Текст #1
Идентификатор : 5
Формат : UTF-8
Идентификатор кодека : S_TEXT/UTF8
Идентификатор кодека/Информация : UTF-8 Plain Text
Продолжительность : 2 ч. 18 м.
Битрейт : 83 бит/сек
Count of elements : 1892
Размер потока : 84,9 Кбайт (0%)
Заголовок : Russian
Язык : Russian
Default : Нет
Forced : Нет

Текст #2
Идентификатор : 6
Формат : UTF-8
Идентификатор кодека : S_TEXT/UTF8
Идентификатор кодека/Информация : UTF-8 Plain Text
Продолжительность : 2 ч. 15 м.
Битрейт : 50 бит/сек
Count of elements : 1464
Размер потока : 50,3 Кбайт (0%)
Заголовок : English
Язык : English
Default : Нет
Forced : Нет

Текст #3
Идентификатор : 7
Формат : UTF-8
Идентификатор кодека : S_TEXT/UTF8
Идентификатор кодека/Информация : UTF-8 Plain Text
Продолжительность : 2 ч. 15 м.
Битрейт : 0 бит/сек
Count of elements : 19
Размер потока : 420 байт (0%)
Заголовок : English - [Forced]
Язык : English
Default : Нет
Forced : Да
Скриншоты

Релиз от:
 

Вложения

  • 13,5 KB Просмотры: 0
    Личеров 0
    Сидеров 0
    Файлов 1
    Объем 4,1 GB

Привет!

Мы группа людей которые решили помочь другим в решении их проблем, а так же пользователям с поиском самых свежих и качественных инфопродуктов. За 4 с небольшим месяца мы создали этот форум на который заходят ежедневно тысячи человек и посещаемость постоянно растёт. Мы создали панель лицензирования для защиты PHP скриптов от воровства и SEO панель для мониторинга наших сайтов и выбора верной стратегии их развития. Мы надеемся что то что мы создали пригодится Вам и возможно Вы поможете нам развиваться и совершенствоваться вместе с Вами.

Статистика форума

Темы
405.486
Сообщения
462.610
Пользователи
80.703
Новый пользователь
dariaeka

Приложения форума для iOS и Android


У ркн там нет власти ;)
Приватные разговоры
Помощь Пользователи
    Вы не присоединились ни к одной комнате.