За последнюю неделю опубликовано 46 новых материалов.
Инструкция новичку Путеводитель по форуму Прокси для Telegram Показать подсказки , это бомба!

Скачать Озеро страха: Наследие / Lake Placid: Legacy (2018) WEB-DL 1080p | iTunes бесплатно через торрент

  • Поучаствуй (в качестве покупателя) в любых пяти совместных покупках (кроме завершённых и "Моментальных") и получи группу "Новичок" навсегда -> ссылка на раздел
  • Получай до 480 рублей за каждого приглашенного пользователя!
    представляем Вам очередное расширение партнерской программы, подробности описаны тут -> ссылка
  • 90% материалов доступно к скачиванию после простой регистрации!
    Если же ты хочешь скачивать материалы без требования оставлять отзывы то получи группу "Новичок", 10 способов повышения описаны тут -> ссылка
  • К сожалению количество битых ссылок растет и мы уже не можем их оперативно восстанавливать поэтому просим помощи у каждого нашего пользователя.
    С сегодняшнего дня, за каждую восстановленную ссылку мы заплатим Вам.
    Подробнее тут -> ссылка
  • Перенесем твои заслуги с другого ресурса!
    Мы понимаем как сложно прокачивать аккаунты на форумах, вроде раскачал аккаунт, а тут появляется ресурс в 100 раз круче но тоже с системой прокачки и снова качать аккаунт...
    Предлагаем вам перенести Ваши заслуги на другом подобном ресурсе к нам.
    Подробности описаны тут -> ссылка
  • Вы можете получать по 2.5% с каждой покупки и продажи на маркете! Подробности в теме Партнёрская программа
Если Вы не хотите скачивать, Вы всегда можетепосмотретьонлайн, просто нажмите кнопку ниже :

Открыть плеер

Torrent_Bot

Торрент-Бот
Бот форума
4 Окт 2016
90
168
20
Информация о фильме
Название: Озеро страха: Наследие
Оригинальное название: Lake Placid: Legacy
Год выхода: 2018
Жанр: Ужасы, фантастика, боевик, триллер
Страна: ЮАР
Перевод: Профессиональный (многоголосый, закадровый) | iTunes
Продолжительность: 01:33:07
Режиссер: Даррелл Рудт
В ролях: Кэтерин Баррелл, Тим Розон, Сай Беннетт, Люк Ньютон, Крэйг Стейн, Джо Пантольяно, Алиша Бэйли, Макс Болдри, Грег Крик и др.

О фильме: Сэм и его друзья Билли, Спенсер, Джейд и Элис – борцы с системой. Они разоблачают происки гигантских корпораций, которые наносят непоправимый вред китам и людям, всей окружающей среде. И ради этой цели они не останавливаются перед мелкими нарушениями закона. К примеру, они спокойно проникают в частные владения в поисках актуальной информации и острых ощущений. Но бесконечно это продолжаться не может. Сэм понимает, что ему пора остепениться. Он обещает своей подруге Джейд, что им предстоит последнее приключение.Это место отсутствует на картах, вход туда строго воспрещен. Среди местных жителей ходят зловещие слухи о том, что находящееся здесь озеро жутко токсично, что уровень радиации тут просто зашкаливает. Но Сэма и его команду слухами не остановишь. Они проникают на запретную территорию. С радиацией здесь все нормально. Вот только земля на острове посреди озера покрыта ошметками человеческих тел. На земле видны отпечатки чьих-то следов. Сэм обнаруживает видеокамеру. На ней два ролика. После их просмотра ребята стремительно несутся к причалу. Кому из них удастся невредимым покинуть ужасный остров? И чья это тень угрожающе проносится под днищем их лодки?



Файл
Формат: MKV
Качество: WEB-DL 1080p
Видео: MPEG-4 AVC, 1920x1030, 5221 kbps, 23,976 fps
Звук#1: русский, AC3, 5.1 ch, 48 kHz, 384 kbps | iTunes
Звук#2: английский, AC3, 5.1 ch, 48 kHz, 384 kbps | оригинал
Субтитры: русские, украинские, английские

MI
General
Уникальный идентификатор : 240071173764888539967950339182566204586 (0xB49C06B7421CD98191C2FCCAAE9A64AA)
Полное имя : F:TorrentOzeroStrahaNasledieWEBDL1080p.mkv
Формат : Matroska
Версия формата : Version 4 / Version 2
Размер файла : 3.90 GiB
Продолжительность : 1 h 33 min
Общий поток : 5 992 kb/s
Дата кодирования : UTC 2018-09-03 09:24:26
Программа кодирования : mkvmerge v9.5.0 ('Quiet Fire') 64bit
Библиотека кодирования : libebml v1.3.4 + libmatroska v1.4.5

Video
Идентификатор : 1
Формат : AVC
Формат/Информация : Advanced Video Codec
Профиль формата : [email protected]
Настройки формата : CABAC / 4 Ref Frames
Параметр CABAC формата : Yes
Параметр RefFrames формата : 4 frames
Идентификатор кодека : V_MPEG4/ISO/AVC
Продолжительность : 1 h 33 min
Битрейт : 5 221 kb/s
Ширина : 1 920 pixels
Высота : 1 030 pixels
Соотношение сторон : 1.85:1
Режим частоты кадров : Constant
Частота кадров : 23.976 FPS
Цветовое пространство : YUV
Субдискретизация насыщенности : 4:2:0
Битовая глубина : 8 bits
Тип развёртки : Progressive
Бит/(Пиксели*Кадры) : 0.110
Размер потока : 3.40 GiB (87%)
Язык : English
Default : Yes
Forced : No
Цветовой диапазон : Limited
Основные цвета : BT.709
Характеристики трансфера : BT.709
Коэффициенты матрицы : BT.709

Audio #1
Идентификатор : 2
Формат : AC-3
Формат/Информация : Audio Coding 3
Идентификатор кодека : A_AC3
Продолжительность : 1 h 33 min
Вид битрейта : Constant
Битрейт : 384 kb/s
Каналы : 6 channels
Расположение каналов : Front: L C R, Side: L R, LFE
Частота : 48.0 kHz
Частота кадров : 31.250 FPS (1536 SPF)
Битовая глубина : 16 bits
Метод сжатия : Lossy
Размер потока : 256 MiB (6%)
Язык : Russian
Default : Yes
Forced : No

Audio #2
Идентификатор : 3
Формат : AC-3
Формат/Информация : Audio Coding 3
Идентификатор кодека : A_AC3
Продолжительность : 1 h 33 min
Вид битрейта : Constant
Битрейт : 384 kb/s
Каналы : 6 channels
Расположение каналов : Front: L C R, Side: L R, LFE
Частота : 48.0 kHz
Частота кадров : 31.250 FPS (1536 SPF)
Битовая глубина : 16 bits
Метод сжатия : Lossy
Размер потока : 256 MiB (6%)
Язык : English
Default : No
Forced : No

Text #1
Идентификатор : 4
Формат : UTF-8
Идентификатор кодека : S_TEXT/UTF8
Идентификатор кодека/Информация : UTF-8 Plain Text
Продолжительность : 1 h 32 min
Битрейт : 76 b/s
ElementCount : 1017
Размер потока : 52.3 KiB (0%)
Язык : Russian
Default : No
Forced : No

Text #2
Идентификатор : 5
Формат : UTF-8
Идентификатор кодека : S_TEXT/UTF8
Идентификатор кодека/Информация : UTF-8 Plain Text
Продолжительность : 1 h 32 min
Битрейт : 73 b/s
ElementCount : 1013
Размер потока : 50.0 KiB (0%)
Язык : Ukrainian
Default : No
Forced : No

Text #3
Идентификатор : 6
Формат : UTF-8
Идентификатор кодека : S_TEXT/UTF8
Идентификатор кодека/Информация : UTF-8 Plain Text
Продолжительность : 1 h 28 min
Битрейт : 52 b/s
ElementCount : 1013
Размер потока : 34.2 KiB (0%)
Заголовок : eng1
Язык : English
Default : No
Forced : No

Text #4
Идентификатор : 7
Формат : UTF-8
Идентификатор кодека : S_TEXT/UTF8
Идентификатор кодека/Информация : UTF-8 Plain Text
Продолжительность : 1 h 28 min
Битрейт : 52 b/s
ElementCount : 1003
Размер потока : 34.2 KiB (0%)
Заголовок : eng2
Язык : English
Default : No
Forced : No

Menu
00:00:00.000 : en:1
00:04:46.578 : en:2
00:08:09.822 : en:3
00:18:35.656 : en:4
00:29:07.954 : en:5
00:38:44.989 : en:6
00:44:57.569 : en:7
00:48:17.518 : en:8
00:49:26.169 : en:9
00:54:40.358 : en:10
01:02:57.104 : en:11
01:05:44.729 : en:12
01:13:15.221 : en:13
01:16:22.032 : en:14
01:17:56.084 : en:15
01:23:21.409 : en:16
Скриншоты

 

Вложения

  • 20,5 KB Просмотры: 1
    Личеров 0
    Сидеров 0
    Файлов 1
    Объем 3,9 GB

Привет!

Мы группа людей которые решили помочь другим в решении их проблем, а так же пользователям с поиском самых свежих и качественных инфопродуктов. За 4 с небольшим месяца мы создали этот форум на который заходят ежедневно тысячи человек и посещаемость постоянно растёт. Мы создали панель лицензирования для защиты PHP скриптов от воровства и SEO панель для мониторинга наших сайтов и выбора верной стратегии их развития. Мы надеемся что то что мы создали пригодится Вам и возможно Вы поможете нам развиваться и совершенствоваться вместе с Вами.

Статистика форума

Темы
410.926
Сообщения
469.363
Пользователи
88.202
Новый пользователь
Sincerita

Приложения форума для iOS и Android


У ркн там нет власти ;)
Приватные разговоры
Помощь Пользователи
    Вы не присоединились ни к одной комнате.