За последнюю неделю опубликовано 63 новых материалов.
Инструкция новичку Путеводитель по форуму Прокси для Telegram Показать подсказки , это бомба!

Скачать Озеро диких гусей / The Wild Goose Lake / Nan fang che zhan de ju hui (2019) BDRemux 1080p | iTunes бесплатно через торрент

  • Поучаствуй (в качестве покупателя) в любых пяти совместных покупках (кроме завершённых и "Моментальных") и получи группу "Новичок" навсегда -> ссылка на раздел
  • Получай до 480 рублей за каждого приглашенного пользователя!
    представляем Вам очередное расширение партнерской программы, подробности описаны тут -> ссылка
  • 90% материалов доступно к скачиванию после простой регистрации!
    Если же ты хочешь скачивать материалы без требования оставлять отзывы то получи группу "Новичок", 10 способов повышения описаны тут -> ссылка
  • К сожалению количество битых ссылок растет и мы уже не можем их оперативно восстанавливать поэтому просим помощи у каждого нашего пользователя.
    С сегодняшнего дня, за каждую восстановленную ссылку мы заплатим Вам.
    Подробнее тут -> ссылка
  • Перенесем твои заслуги с другого ресурса!
    Мы понимаем как сложно прокачивать аккаунты на форумах, вроде раскачал аккаунт, а тут появляется ресурс в 100 раз круче но тоже с системой прокачки и снова качать аккаунт...
    Предлагаем вам перенести Ваши заслуги на другом подобном ресурсе к нам.
    Подробности описаны тут -> ссылка
  • Вы можете получать по 2.5% с каждой покупки и продажи на маркете! Подробности в теме Партнёрская программа
Если Вы не хотите скачивать, Вы всегда можетепосмотретьонлайн, просто нажмите кнопку ниже :

Открыть плеер

Torrent_Bot

Торрент-Бот
Бот форума
4 Окт 2016
92
160
20



Название: Озеро диких гусей
Оригинальное название: Nan fang che zhan de ju hui
Год выпуска: 2019
Жанр: Драма, криминал
Режиссер: Дяо Инань
В ролях: Гэ Ху, Луньмэй Квай, Фань Ляо, Реджина Ван, Ци Дао, Хуан Цзюэ, Цзэн Мэйхуэйцзы

О фильме:
Чжоу Цзэнун - лидер небольшой банды, которая занимается кражей мотоциклов. Во время одной из разборок он случайно убивает полицейского и становится целью номер один для полиции и властей. В бегах Чжоу встретит проститутку Лю Айай - оба загнаны в тупик и ищут выход.



Страна: Китай, Франция
Студия: Green Ray Films, Memento Films
Продолжительность: 01:50:56
Перевод: Дублированный | iTunes

Формат: MKV
Качество: BDRemux 1080p
Видео: AVC/H.264, 1920x1080, ~36 Mbps
Аудио 1: AC3, 6 ch, 384 Kbps - Русский (DUB, iTunes)
Аудио 2: DTS-HD MA, 6 ch, 4127 Kbps - Китайский
Субтитры: Английские

M/I
Общее
Полное имя : The.Wild.Goose.Lake.2019.BDRemux.1080p.mkv
Формат : Matroska
Версия формата : Version 4
Размер файла : 30,5 Гбайт
Продолжительность : 1 ч. 50 м.
Режим общего битрейта : Переменный
Общий поток : 39,3 Мбит/сек
Дата кодирования : UTC 2020-08-03 11:28:01
Программа кодирования : mkvmerge v49.0.0 ('Sick Of Losing Soulmates') 64-bit
Библиотека кодирования : libebml v1.4.0 + libmatroska v1.6.1

Видео
Идентификатор : 1
Формат : AVC
Формат/Информация : Advanced Video Codec
Профиль формата : [email protected]
Настройки формата : CABAC / 4 Ref Frames
Параметр CABAC формата : Да
Параметр RefFrames формата : 4 кадра
Параметр GOP формата : M=3, N=24
Идентификатор кодека : V_MPEG4/ISO/AVC
Продолжительность : 1 ч. 50 м.
Вид битрейта : Постоянный
Битрейт : 36,0 Мбит/сек
Ширина : 1 920 пикселей
Высота : 1 080 пикселей
Соотношение сторон : 16:9
Режим частоты кадров : Постоянный
Частота кадров : 23,976 (24000/1001) кадра/сек
Стандарт вещания : NTSC
Цветовое пространство : YUV
Субдискретизация насыщенности : 4:2:0
Битовая глубина : 8 бит
Тип развёртки : Прогрессивная
Бит/(Пиксели*Кадры) : 0.724
Размер потока : 27,0 Гбайт (89%)
Default : Да
Forced : Нет
Цветовой диапазон : Limited
Основные цвета : BT.709
Характеристики трансфера : BT.709
Коэффициенты матрицы : BT.709

Аудио #1
Идентификатор : 2
Формат : AC-3
Формат/Информация : Audio Coding 3
Коммерческое название : Dolby Digital
Идентификатор кодека : A_AC3
Продолжительность : 1 ч. 50 м.
Вид битрейта : Постоянный
Битрейт : 384 Кбит/сек
Каналы : 6 каналов
Channel layout : L R C LFE Ls Rs
Частота : 48,0 КГц
Частота кадров : 31,250 кадров/сек (1536 SPF)
Метод сжатия : С потерями
Размер потока : 305 Мбайт (1%)
Заголовок : DUB | iTunes
Язык : Russian
Service kind : Complete Main
Default : Да
Forced : Нет

Аудио #2
Идентификатор : 3
Формат : DTS XLL
Формат/Информация : Digital Theater Systems
Коммерческое название : DTS-HD Master Audio
Идентификатор кодека : A_DTS
Продолжительность : 1 ч. 50 м.
Вид битрейта : Переменный
Битрейт : 4 127 Кбит/сек
Каналы : 6 каналов
Channel layout : C L R Ls Rs LFE
Частота : 48,0 КГц
Частота кадров : 93,750 кадра/сек (512 SPF)
Битовая глубина : 24 бит
Метод сжатия : Без потерь
Размер потока : 3,20 Гбайт (11%)
Язык : Chinese
Default : Нет
Forced : Нет

Текст
Идентификатор : 4
Формат : UTF-8
Идентификатор кодека : S_TEXT/UTF8
Идентификатор кодека/Информация : UTF-8 Plain Text
Продолжительность : 1 ч. 42 м.
Битрейт : 22 бит/сек
Count of elements : 720
Размер потока : 17,0 Кбайт (0%)
Язык : English
Default : Нет
Forced : Нет

Меню
00:00:00.000 : en:Chapter 01
00:07:46.382 : en:Chapter 02
00:19:04.643 : en:Chapter 03
00:28:10.271 : en:Chapter 04
00:40:06.862 : en:Chapter 05
00:49:10.197 : en:Chapter 06
00:58:29.589 : en:Chapter 07
01:06:54.719 : en:Chapter 08
01:16:12.025 : en:Chapter 09
01:24:07.876 : en:Chapter 10
01:32:02.350 : en:Chapter 11
01:48:18.700 : en:Chapter 12
01:50:54.856 : en:Chapter 13
Скриншоты
 

Вложения

  • 305,5 KB Просмотры: 0
    Личеров 0
    Сидеров 0
    Файлов 1
    Объем 30,5 GB

Привет!

Мы группа людей которые решили помочь другим в решении их проблем, а так же пользователям с поиском самых свежих и качественных инфопродуктов. За 4 с небольшим месяца мы создали этот форум на который заходят ежедневно тысячи человек и посещаемость постоянно растёт. Мы создали панель лицензирования для защиты PHP скриптов от воровства и SEO панель для мониторинга наших сайтов и выбора верной стратегии их развития. Мы надеемся что то что мы создали пригодится Вам и возможно Вы поможете нам развиваться и совершенствоваться вместе с Вами.

Статистика форума

Темы
406.656
Сообщения
465.106
Пользователи
84.673
Новый пользователь
cltdyj

Приложения форума для iOS и Android


У ркн там нет власти ;)
Приватные разговоры
Помощь Пользователи
    Вы не присоединились ни к одной комнате.