За последнюю неделю опубликовано 30 новых материалов.
Инструкция новичку Путеводитель по форуму Прокси для Telegram Показать подсказки , это бомба!

Скачать Охрана замка / Castle Keep (1969) BDRip-AVC от msltel | P, P2 | USA Transfer бесплатно через торрент

  • Поучаствуй (в качестве покупателя) в любых пяти совместных покупках (кроме завершённых и "Моментальных") и получи группу "Новичок" навсегда -> ссылка на раздел
  • Получай до 480 рублей за каждого приглашенного пользователя!
    представляем Вам очередное расширение партнерской программы, подробности описаны тут -> ссылка
  • 90% материалов доступно к скачиванию после простой регистрации!
    Если же ты хочешь скачивать материалы без требования оставлять отзывы то получи группу "Новичок", 10 способов повышения описаны тут -> ссылка
  • К сожалению количество битых ссылок растет и мы уже не можем их оперативно восстанавливать поэтому просим помощи у каждого нашего пользователя.
    С сегодняшнего дня, за каждую восстановленную ссылку мы заплатим Вам.
    Подробнее тут -> ссылка
  • Перенесем твои заслуги с другого ресурса!
    Мы понимаем как сложно прокачивать аккаунты на форумах, вроде раскачал аккаунт, а тут появляется ресурс в 100 раз круче но тоже с системой прокачки и снова качать аккаунт...
    Предлагаем вам перенести Ваши заслуги на другом подобном ресурсе к нам.
    Подробности описаны тут -> ссылка
  • Вы можете получать по 2.5% с каждой покупки и продажи на маркете! Подробности в теме Партнёрская программа
Если Вы не хотите скачивать, Вы всегда можетепосмотретьонлайн, просто нажмите кнопку ниже :

Открыть плеер

Torrent_Bot

Торрент-Бот
Бот форума
4 Окт 2016
93
160
20



Название: Охрана замка
Оригинальное название: Castle Keep
Год выпуска: 1969
Страна: США
Жанр: драма, мелодрама, комедия, боевик, военный
Продолжительность: 01:47:17
Перевод: профессиональный многоголосый, профессиональный двухголосый
Режиссер: Сидни Поллак
В ролях: Бёрт Ланкастер, Питер Фальк, Патрик О’Нил, Жан-Пьер Омон, Астрид Хирен, Скотт Уилсон, Тони Билл, Эл Фримен мл., Джеймс Паттерсон, Брюс Дерн, Майкл Конрад, Катерина Боратто, Элизабет Тесье, Ольга Бизера, Элизабет Дариус, Карен Блангернон, Гарри Бейрд, Эрнест Кларк, Дэвид Джонс, Душан Тадич

О фильме: В конце Второй мировой войны семеро американских солдат после тяжёлых сражений были отправлены на отдых в тихий провинциальный городок. Рядом с городком на франко-бельгийско-немецкой границе они обнаруживают старинный замок X века, в котором "с согласия" хозяина они и расположились. Три недели спустя их покой был нарушен немецким наступлением. Следуя строгим американским традициям (не отступать и не сдаваться), семеро смелых ведут оборону городка, замка и любимого борделя! Против превосходящих сил гитлеровцев в ход идут даже бутылки из-под коньяка, заполненные бензином, которыми, по совету американцев, забрасывают танки местные проститутки. Изюминка фильма в том, что оборона замка навязана хозяину американским патриотизмом! Пытаясь защитить сокровища искусств, принадлежащие хозяину замка, вопреки его просьбе: отступите и не вмешивайтесь в "культурные" традиции Европы, семеро смелых устраивают кромешный АД на маленьком клочке земли!... Сюжет фильма основан на одноимённом романе Уильяма Истлейка, написанном в 1965 году.



Качество: BDRip-AVC
Формат: MKV
Видео: MPEG-4 AVC, 2538 Кбит/с, 1024x436, 23.976 кадр/с
Аудио 1: русский, AC3, 192 kbps, 2 ch, 48 kHz [закадровый многоголосый, СПб 5 канал]
Аудио 2: русский, AC3, 192 kbps, 2 ch, 48 kHz [закадровый многоголосый, Пифагор]
Аудио 3: русский, AC3, 192 kbps, 2 ch, 48 kHz [закадровый двухголосый, HTB+]
Аудио 4: английский, AC3, 448 kbps, 4 ch, 48 kHz [оригинал]
Субтитры: английские
Главы/чаптеры

MediaInfo
Общее
Уникальный идентификатор : 197681426293903720297357261860848113202 (0x94B80ECE43F37884981A0F5547A99632)
Полное имя : D:VideoОхрана замка.1969.BDRip-AVC msltel.mkv
Формат : Matroska
Версия формата : Version 4
Размер файла : 2,67 Гбайт
Продолжительность : 1 ч. 47 м.
Общий поток : 3 565 Кбит/сек
Название фильма : Rip msltel
Дата кодирования : UTC 2020-07-04 02:54:53
Программа кодирования : mkvmerge v8.2.0 ('World of Adventure') 64bit
Библиотека кодирования : libebml v1.3.1 + libmatroska v1.4.2

Видео
Идентификатор : 1
Формат : AVC
Формат/Информация : Advanced Video Codec
Профиль формата : [email protected]
Настройки формата : CABAC / 16 Ref Frames
Параметр CABAC формата : Да
Параметр RefFrames формата : 16 кадров
Идентификатор кодека : V_MPEG4/ISO/AVC
Продолжительность : 1 ч. 47 м.
Битрейт : 2 538 Кбит/сек
Ширина : 1 024 пикселя
Высота : 436 пикселей
Соотношение сторон : 2,35:1
Режим частоты кадров : Постоянный
Частота кадров : 23,976 (24000/1001) кадра/сек
Цветовое пространство : YUV
Субдискретизация насыщенности : 4:2:0
Битовая глубина : 8 бит
Тип развёртки : Прогрессивная
Бит/(Пиксели*Кадры) : 0.237
Размер потока : 1,90 Гбайт (71%)
Библиотека кодирования : x264 core 159 r2991 1771b55
Настройки программы : cabac=1 / ref=16 / deblock=1:-2:-2 / analyse=0x3:0x113 / me=umh / subme=11 / psy=1 / psy_rd=1.00:0.15 / mixed_ref=1 / me_range=32 / chroma_me=1 / trellis=2 / 8x8dct=1 / cqm=0 / deadzone=21,11 / fast_pskip=0 / chroma_qp_offset=-3 / threads=6 / lookahead_threads=1 / sliced_threads=0 / nr=0 / decimate=1 / interlaced=0 / bluray_compat=0 / constrained_intra=0 / bframes=12 / b_pyramid=2 / b_adapt=2 / b_bias=0 / direct=1 / weightb=1 / open_gop=0 / weightp=2 / keyint=230 / keyint_min=23 / scenecut=40 / intra_refresh=0 / rc_lookahead=40 / rc=crf / mbtree=1 / crf=19.5 / qcomp=0.60 / qpmin=0 / qpmax=69 / qpstep=4 / vbv_maxrate=50000 / vbv_bufsize=62500 / crf_max=0.0 / nal_hrd=none / filler=0 / ip_ratio=1.40 / aq=1:1.00
Язык : English
Default : Да
Forced : Нет

Аудио #1
Идентификатор : 2
Формат : AC-3
Формат/Информация : Audio Coding 3
Коммерческое название : Dolby Digital
Идентификатор кодека : A_AC3
Продолжительность : 1 ч. 47 м.
Вид битрейта : Постоянный
Битрейт : 192 Кбит/сек
Каналы : 2 канала
Channel layout : L R
Частота : 48,0 КГц
Частота кадров : 31,250 кадров/сек (1536 SPF)
Метод сжатия : С потерями
Размер потока : 147 Мбайт (5%)
Заголовок : MVO СПб 5 канал
Язык : Russian
Service kind : Complete Main
Default : Да
Forced : Нет

Аудио #2
Идентификатор : 3
Формат : AC-3
Формат/Информация : Audio Coding 3
Коммерческое название : Dolby Digital
Идентификатор кодека : A_AC3
Продолжительность : 1 ч. 47 м.
Вид битрейта : Постоянный
Битрейт : 192 Кбит/сек
Каналы : 2 канала
Channel layout : L R
Частота : 48,0 КГц
Частота кадров : 31,250 кадров/сек (1536 SPF)
Метод сжатия : С потерями
Размер потока : 147 Мбайт (5%)
Заголовок : MVO Пифагор
Язык : Russian
Service kind : Complete Main
Default : Нет
Forced : Нет

Аудио #3
Идентификатор : 4
Формат : AC-3
Формат/Информация : Audio Coding 3
Коммерческое название : Dolby Digital
Идентификатор кодека : A_AC3
Продолжительность : 1 ч. 47 м.
Вид битрейта : Постоянный
Битрейт : 192 Кбит/сек
Каналы : 2 канала
Channel layout : L R
Частота : 48,0 КГц
Частота кадров : 31,250 кадров/сек (1536 SPF)
Метод сжатия : С потерями
Размер потока : 147 Мбайт (5%)
Заголовок : DVO HTB+
Язык : Russian
Service kind : Complete Main
Default : Нет
Forced : Нет

Аудио #4
Идентификатор : 5
Формат : AC-3
Формат/Информация : Audio Coding 3
Коммерческое название : Dolby Digital
Идентификатор кодека : A_AC3
Продолжительность : 1 ч. 47 м.
Вид битрейта : Постоянный
Битрейт : 448 Кбит/сек
Каналы : 4 канала
Channel layout : L R C Cb
Частота : 48,0 КГц
Частота кадров : 31,250 кадров/сек (1536 SPF)
Метод сжатия : С потерями
Размер потока : 344 Мбайт (13%)
Заголовок : оригинал
Язык : English
Service kind : Complete Main
Default : Нет
Forced : Нет

Текст
Идентификатор : 6
Формат : UTF-8
Идентификатор кодека : S_TEXT/UTF8
Идентификатор кодека/Информация : UTF-8 Plain Text
Продолжительность : 1 ч. 45 м.
Битрейт : 50 бит/сек
Count of elements : 1042
Размер потока : 39,1 Кбайт (0%)
Заголовок : английские
Язык : English
Default : Нет
Forced : Нет

Меню
00:00:00.000 : en:Chapter 01
00:09:57.512 : en:Chapter 02
00:16:39.707 : en:Chapter 03
00:26:59.117 : en:Chapter 04
00:37:03.720 : en:Chapter 05
00:45:32.062 : en:Chapter 06
00:54:11.372 : en:Chapter 07
01:01:22.303 : en:Chapter 08
01:12:12.661 : en:Chapter 09
01:20:43.171 : en:Chapter 10
01:30:07.777 : en:Chapter 11
01:38:01.250 : en:Chapter 12
 

Вложения

  • 14,2 KB Просмотры: 0
    Личеров 0
    Сидеров 0
    Файлов 1
    Объем 2,7 GB

Привет!

Мы группа людей которые решили помочь другим в решении их проблем, а так же пользователям с поиском самых свежих и качественных инфопродуктов. За 4 с небольшим месяца мы создали этот форум на который заходят ежедневно тысячи человек и посещаемость постоянно растёт. Мы создали панель лицензирования для защиты PHP скриптов от воровства и SEO панель для мониторинга наших сайтов и выбора верной стратегии их развития. Мы надеемся что то что мы создали пригодится Вам и возможно Вы поможете нам развиваться и совершенствоваться вместе с Вами.

Статистика форума

Темы
406.605
Сообщения
465.028
Пользователи
84.390
Новый пользователь
князь владимир

Приложения форума для iOS и Android


У ркн там нет власти ;)
Приватные разговоры
Помощь Пользователи
    Вы не присоединились ни к одной комнате.