За последнюю неделю опубликовано 30 новых материалов.
Инструкция новичку Путеводитель по форуму Прокси для Telegram Показать подсказки , это бомба!

Скачать Охотники за привидениями / Ghostbusters (2016) WEB-DLRip-AVC | D | Open Matte | Theatrical Cut бесплатно через торрент

  • Поучаствуй (в качестве покупателя) в любых пяти совместных покупках (кроме завершённых и "Моментальных") и получи группу "Новичок" навсегда -> ссылка на раздел
  • Получай до 480 рублей за каждого приглашенного пользователя!
    представляем Вам очередное расширение партнерской программы, подробности описаны тут -> ссылка
  • 90% материалов доступно к скачиванию после простой регистрации!
    Если же ты хочешь скачивать материалы без требования оставлять отзывы то получи группу "Новичок", 10 способов повышения описаны тут -> ссылка
  • К сожалению количество битых ссылок растет и мы уже не можем их оперативно восстанавливать поэтому просим помощи у каждого нашего пользователя.
    С сегодняшнего дня, за каждую восстановленную ссылку мы заплатим Вам.
    Подробнее тут -> ссылка
  • Перенесем твои заслуги с другого ресурса!
    Мы понимаем как сложно прокачивать аккаунты на форумах, вроде раскачал аккаунт, а тут появляется ресурс в 100 раз круче но тоже с системой прокачки и снова качать аккаунт...
    Предлагаем вам перенести Ваши заслуги на другом подобном ресурсе к нам.
    Подробности описаны тут -> ссылка
  • Вы можете получать по 2.5% с каждой покупки и продажи на маркете! Подробности в теме Партнёрская программа
Если Вы не хотите скачивать, Вы всегда можетепосмотретьонлайн, просто нажмите кнопку ниже :

Открыть плеер

Torrent_Bot

Торрент-Бот
Бот форума
4 Окт 2016
93
160
20

Информация о фильме
Название: Охотники за привидениями
Оригинальное название: Ghostbusters
Год выхода: 2016
Жанр: Фантастика, Фэнтези, Боевик, Комедия
Режиссер: Пол Фиг
В ролях: Мелисса МакКарти, Кристен Уиг, Кейт МакКиннон, Лесли Джонс, Крис Хемсворт, Сесили Стронг, Энди Гарсиа, Нил Кэйси, Чарльз Дэнс, Майкл Кеннет Уильямс, Билл Мюррей

О фильме:
Тридцать лет назад охотники за привидениями спасли Нью-Йорк от нашествия призраков, но теперь городу вновь угрожает опасность. Былые герои не могут стать на его защиту, но находятся и другие отважные люди, всю свою жизнь посвятившие изучению паранормальных явлений. Эбби Йейтс объединяется с Эрин Гилберт, пожалуй лучшим специалистом в квантовой физике, и вместе они собирают команду новых охотников за привидениями, в которую принимают отличного инженера Джиллиан Хольцман, сотрудницу метрополитена Пэтти Толан, знающую город как свои пять пальцев, и секретаря - настоящего красавчика Кэвина. Вместе они начинают борьбу с нечистой силой, терроризирующей мегаполис…



Страна: США, Австралия
Выпущено: Columbia Pictures, Feigco Entertainment, Ghostcorps, LStar Capital, Pascal Pictures, The Montecito Picture Company, Village Roadshow Pictures
Продолжительность: 01:56:38
Перевод: Дублированный
Субтитры: Русские (полные + форс.), английские (Full)

Файл
Формат: Matroska
Качество: WEB-DLRip-AVC | Open Matte | Theatrical Cut
Видео: 1024x576 (16:9) at 23.976 fps, x264, ~2706 kbps, 0.191 bpp
Аудио: AC3, 6 ch, ~384 kbps - | Русский | -
Навигация по главам: есть

***Релиз от:-=DoMiNo=-

M/I
x264 [info]: frame I:2170 Avg QP:17.63 size: 86332
x264 [info]: frame P:43507 Avg QP:19.32 size: 27077
x264 [info]: frame B:122110 Avg QP:22.46 size: 8200

General
Format : Matroska
Format version : Version 4
File size : 2.52 GiB
Duration : 1 h 56 min
Overall bit rate : 3 092 kb/s
Movie name : Охотники за привидениями.(2016).WEB-DLRip-AVC.O.M.t.c.[-=DoMiNo=-]
Encoded date : UTC 2020-05-16 12:05:00
Writing application : mkvmerge v46.0.0 ('No Deeper Escape') 64-bit
Writing library : libebml v1.3.10 + libmatroska v1.5.2
Cover : Yes
Attachments : cover.jpg / cover 2.jpg

Video
ID : 1
Format : AVC
Format/Info : Advanced Video Codec
Format profile : [email protected]
Format settings : CABAC / 12 Ref Frames
Format settings, CABAC : Yes
Format settings, Reference : 12 frames
Codec ID : V_MPEG4/ISO/AVC
Duration : 1 h 56 min
Bit rate : 2 706 kb/s
Width : 1 024 pixels
Height : 576 pixels
Display aspect ratio : 16:9
Frame rate mode : Constant
Frame rate : 23.976 (24000/1001) FPS
Color space : YUV
Chroma subsampling : 4:2:0
Bit depth : 8 bits
Scan type : Progressive
Bits/(Pixel*Frame) : 0.191
Stream size : 2.20 GiB (88%)
Title : RIP BY -=DoMiNo=- | Open Matte
Writing library : x264 core 160 r3000 33f9e14
Encoding settings : cabac=1 / ref=12 / deblock=1:-3:-3 / analyse=0x3:0x133 / me=umh / subme=10 / psy=1 / psy_rd=1.00:0.00 / mixed_ref=1 / me_range=32 / chroma_me=1 / trellis=2 / 8x8dct=1 / cqm=0 / deadzone=21,11 / fast_pskip=1 / chroma_qp_offset=-2 / threads=6 / lookahead_threads=1 / sliced_threads=0 / nr=0 / decimate=1 / interlaced=0 / bluray_compat=0 / constrained_intra=0 / bframes=12 / b_pyramid=2 / b_adapt=2 / b_bias=0 / direct=1 / weightb=1 / open_gop=0 / weightp=2 / keyint=250 / keyint_min=23 / scenecut=40 / intra_refresh=0 / rc_lookahead=60 / rc=crf / mbtree=0 / crf=18.0 / qcomp=0.60 / qpmin=0 / qpmax=69 / qpstep=4 / vbv_maxrate=50000 / vbv_bufsize=62500 / crf_max=0.0 / nal_hrd=none / filler=0 / ip_ratio=1.40 / pb_ratio=1.30 / aq=2:0.90
Language : English
Default : Yes
Forced : No
Color range : Limited
Color primaries : BT.709
Transfer characteristics : BT.709
Matrix coefficients : BT.709

Audio
ID : 2
Format : AC-3
Format/Info : Audio Coding 3
Commercial name : Dolby Digital
Codec ID : A_AC3
Duration : 1 h 56 min
Bit rate mode : Constant
Bit rate : 384 kb/s
Channel(s) : 6 channels
Channel layout : L R C LFE Ls Rs
Sampling rate : 48.0 kHz
Frame rate : 31.250 FPS (1536 SPF)
Compression mode : Lossy
Stream size : 320 MiB (12%)
Title : DUB
Language : Russian
Service kind : Complete Main
Default : Yes
Forced : No

Text #1
ID : 3
Format : UTF-8
Codec ID : S_TEXT/UTF8
Codec ID/Info : UTF-8 Plain Text
Duration : 1 h 43 min
Bit rate : 1 b/s
Count of elements : 28
Stream size : 1.43 KiB (0%)
Title : forced
Language : Russian
Default : No
Forced : Yes

Text #2
ID : 4
Format : UTF-8
Codec ID : S_TEXT/UTF8
Codec ID/Info : UTF-8 Plain Text
Duration : 1 h 55 min
Bit rate : 119 b/s
Count of elements : 2042
Stream size : 101 KiB (0%)
Title : full
Language : Russian
Default : No
Forced : No

Text #3
ID : 5
Format : UTF-8
Codec ID : S_TEXT/UTF8
Codec ID/Info : UTF-8 Plain Text
Duration : 1 h 55 min
Bit rate : 80 b/s
Count of elements : 2010
Stream size : 67.9 KiB (0%)
Language : English
Default : No
Forced : No

Menu
00:00:00.000 : en:Studio Logo
00:00:49.032 : en:The haunted Aldridge house
00:05:11.032 : en:Erin preps for her lecture
00:07:09.032 : en:Erin sees a book from her past on Amazon
00:08:26.032 : en:Erin goes to the Higgins Science Institute to find Abby
00:14:02.032 : en:Erin takes Abby and Jillian to the Aldridge house
00:15:20.032 : en:The women inspect the Aldridge house for a supernatural sighting
00:19:17.032 : en:Harold disciplines Erin for the youtube video of her
00:21:43.032 : en:The women ask the Dean for more funding
00:23:16.032 : en:patty sees a ghost in the subway
00:25:27.032 : en:Bullied to being the bully
00:26:27.032 : en:The ladies get a new research lab
00:29:37.032 : en:The ladies interview Kevin for the receptionist job
00:33:55.032 : en:patty takes the ladies to the subway where she saw the ghost
00:39:03.032 : en:Meanwhile at the lab, Patty asks to join the club
00:42:33.032 : en:Abby tests out the nuclear laser
00:43:53.032 : en:patty gets to know the ladies
00:47:29.032 : en:The ladys go to the theater
00:49:40.032 : en:The ladies hunt a ghost at a rock concert
00:55:44.032 : en:The ladies leave the theater as heroes
00:56:29.032 : en:Martin Heiss visits the ladies during their celebration
01:01:11.032 : en:The ladies meet Mayor Bradley
01:05:13.032 : en:Jillian shows the ladies the new weapons she developed
01:07:03.032 : en:Erin discovers ley lines
01:15:42.032 : en:Abby sees Rowan again
01:20:51.032 : en:Erin tries to warn Mayor Bradley
01:22:04.032 : en:Kevin unleashes the ghosts
01:24:33.032 : en:The ladies head into the city to fight the ghosts
01:28:40.032 : en:The ladies fight the ghosts
01:41:00.032 : en:The city is restored
01:42:49.032 : en:More funding
01:45:37.032 : en:End Credits
01:55:59.032 : en:What's Zuul?
Примечание & Сравнения:
Исходник видео WEB-DL Amazon STARZ (периодически появляется логотип).
Open Matte-версия фильма имеет большее наполнение кадра по сравнению с Blu-ray.

[URL="http://www.framecompare.com/image-compare/screenshotcomparison/99BF1NNU" target="_blank">***Сравнения => BD vs WEB-DL Open Matte
Скриншоты
 

Вложения

  • 101,9 KB Просмотры: 0
    Личеров 0
    Сидеров 0
    Файлов 1
    Объем 2,5 GB

Привет!

Мы группа людей которые решили помочь другим в решении их проблем, а так же пользователям с поиском самых свежих и качественных инфопродуктов. За 4 с небольшим месяца мы создали этот форум на который заходят ежедневно тысячи человек и посещаемость постоянно растёт. Мы создали панель лицензирования для защиты PHP скриптов от воровства и SEO панель для мониторинга наших сайтов и выбора верной стратегии их развития. Мы надеемся что то что мы создали пригодится Вам и возможно Вы поможете нам развиваться и совершенствоваться вместе с Вами.

Статистика форума

Темы
406.605
Сообщения
465.025
Пользователи
84.383
Новый пользователь
wazice

Приложения форума для iOS и Android


У ркн там нет власти ;)
Приватные разговоры
Помощь Пользователи
    Вы не присоединились ни к одной комнате.