За последнюю неделю опубликовано 49 новых материалов.
Инструкция новичку Путеводитель по форуму Прокси для Telegram Показать подсказки , это бомба!

Скачать Отзвуки эха / Stir of Echoes (1999) BDRip 1080p | P, A бесплатно через торрент

  • Поучаствуй (в качестве покупателя) в любых пяти совместных покупках (кроме завершённых и "Моментальных") и получи группу "Новичок" навсегда -> ссылка на раздел
  • Получай до 480 рублей за каждого приглашенного пользователя!
    представляем Вам очередное расширение партнерской программы, подробности описаны тут -> ссылка
  • 90% материалов доступно к скачиванию после простой регистрации!
    Если же ты хочешь скачивать материалы без требования оставлять отзывы то получи группу "Новичок", 10 способов повышения описаны тут -> ссылка
  • К сожалению количество битых ссылок растет и мы уже не можем их оперативно восстанавливать поэтому просим помощи у каждого нашего пользователя.
    С сегодняшнего дня, за каждую восстановленную ссылку мы заплатим Вам.
    Подробнее тут -> ссылка
  • Перенесем твои заслуги с другого ресурса!
    Мы понимаем как сложно прокачивать аккаунты на форумах, вроде раскачал аккаунт, а тут появляется ресурс в 100 раз круче но тоже с системой прокачки и снова качать аккаунт...
    Предлагаем вам перенести Ваши заслуги на другом подобном ресурсе к нам.
    Подробности описаны тут -> ссылка
  • Вы можете получать по 2.5% с каждой покупки и продажи на маркете! Подробности в теме Партнёрская программа
Если Вы не хотите скачивать, Вы всегда можетепосмотретьонлайн, просто нажмите кнопку ниже :

Открыть плеер

Torrent_Bot

Торрент-Бот
Бот форума
4 Окт 2016
93
160
20

Название: Отзвуки эха
Оригинальное название: Stir of Echoes
Год выхода: 1999
Страна: США
Студия: Artisan Entertainment
Продолжительность: 01:39:09
Жанр: ужасы, триллер, детектив

Режиссер: Дэвид Кепп
В ролях: Кевин Бейкон, Захари Дэвид Коуп, Кэтрин Эрбе, Иллиана Даглас, Кевин Данн, Конор О’Фэррелл, Люсия Струс, Стефен Юджин Уолкер, Мэри Кэй Кук, Ларри Ньюманн мл, ...

Перевод:
- Профессиональный (многоголосый, закадровый) R5 от «Videogram»
- Авторский (одноголосый, закадровый) Гаврилов Андрей Юрьевич
- Авторский (одноголосый, закадровый) Живов Юрий Викторович
- Авторский (одноголосый, закадровый) Леша-прапорщик
- Субтитры

О фильме: До этого дня Том Вицки не верил в гипноз и теории о скрытых резервах подсознания. Но однажды ему представился шанс испытать это на себе. После того, как Тома в шутку загипнотизировали на вечеринке, его жизнь превратилась в клубок странных противоречий и ужасных событий, которые нужно было пережить, чтобы вырваться из когтей окружающего кошмара…



Кодек: x264
Качество: BDRip 1080p
Видео: 1920x1080, 12000 kbps, 23,976 fps
Аудио #1: AC-3, 6 ch, 640 kbps (Rus) - MVO R5 «Videogram»
Аудио #2: AC-3, 6 ch, 640 kbps (Rus) - AVO Гаврилов Андрей Юрьевич
Аудио #3: AC-3, 6 ch, 640 kbps (Rus) - AVO Живов Юрий Викторович
Аудио #4: AC-3, 2 ch, 192 kbps (Rus) - AVO Леша-прапорщик
Аудио #5: DTS, 6 ch, 1509 kbps (Eng)
Субтитры: русские, английские

Дополнительная информация
За исходник спасибо - Timur
MediaInfo
x264 [info]: frame I:766 Avg QP:17.39 size:198939
x264 [info]: frame P:27121 Avg QP:19.92 size:111174
x264 [info]: frame B:114768 Avg QP:22.08 size: 50077
x264 [info]: consecutive B-frames: 1.3% 1.6% 4.3% 16.9% 14.3% 32.1% 8.9% 11.0% 2.3% 1.9% 1.3% 1.0% 1.1% 1.1% 0.8%

Общее
Уникальный идентификатор : 188749985325572637755245342840910313251 (0x8DFFECC48CD628C59EE421CDB4B0F723)
Полное имя : Отзвуки эха (Stir of Echoes) 1999 BDRip 1080p.mkv
Формат : Matroska
Версия формата : Version 2
Размер файла : 10,8 Гбайт
Продолжительность : 1 ч. 39 м.
Общий поток : 15,6 Мбит/сек
Дата кодирования : UTC 2020-06-12 07:42:27
Программа кодирования : mkvmerge v4.0.0 ('The Stars were mine') сборка от Jun 6 2010 16:18:42
Библиотека кодирования : libebml v1.0.0 + libmatroska v1.0.0

Видео
Идентификатор : 1
Формат : AVC
Формат/Информация : Advanced Video Codec
Профиль формата : [email protected]
Параметр CABAC формата : Да
Параметр ReFrames формата : 4 кадра
Идентификатор кодека : V_MPEG4/ISO/AVC
Продолжительность : 1 ч. 39 м.
Битрейт : 12,0 Мбит/сек
Ширина : 1920 пикселей
Высота : 1080 пикселей
Соотношение сторон : 16:9
Режим частоты кадров : Постоянный
Частота кадров : 23,976 (24000/1001) кадра/сек
Цветовое пространство : YUV
Субдискретизация насыщенности : 4:2:0
Битовая глубина : 8 бит
Тип развёртки : Прогрессивная
Бит/(Пиксели*Кадры) : 0.241
Размер потока : 8,09 Гбайт (75%)
Библиотека кодирования : x264 core 146 r2538 121396c
Настройки программы : cabac=1 / ref=4 / deblock=1:-2:-2 / analyse=0x3:0x133 / me=umh / subme=11 / psy=1 / psy_rd=1.00:0.00 / mixed_ref=1 / me_range=32 / chroma_me=1 / trellis=2 / 8x8dct=1 / cqm=0 / deadzone=21,11 / fast_pskip=0 / chroma_qp_offset=-2 / threads=12 / lookahead_threads=2 / sliced_threads=0 / nr=0 / decimate=0 / interlaced=0 / bluray_compat=0 / constrained_intra=0 / bframes=14 / b_pyramid=2 / b_adapt=2 / b_bias=0 / direct=3 / weightb=1 / open_gop=0 / weightp=2 / keyint=240 / keyint_min=23 / scenecut=40 / intra_refresh=0 / rc=2pass / mbtree=0 / bitrate=12000 / ratetol=1.0 / qcomp=0.60 / qpmin=0 / qpmax=69 / qpstep=4 / cplxblur=20.0 / qblur=0.5 / ip_ratio=1.40 / pb_ratio=1.30 / aq=2:0.80
Язык : English
Default : Нет
Forced : Нет

Аудио #1
Идентификатор : 2
Формат : AC-3
Формат/Информация : Audio Coding 3
Расширение режима : CM (complete main)
Параметр Endianness формата : Big
Идентификатор кодека : A_AC3
Продолжительность : 1 ч. 39 м.
Вид битрейта : Постоянный
Битрейт : 640 Кбит/сек
Каналы : 6 каналов
Расположение каналов : Front: L C R, Side: L R, LFE
Частота : 48,0 КГц
Частота кадров : 31,250 кадров/сек (1536 spf)
Метод сжатия : С потерями
Размер потока : 454 Мбайт (4%)
Заголовок : MVO R5 «Videogram»
Язык : Russian
Default : Нет
Forced : Нет

Аудио #2
Идентификатор : 3
Формат : AC-3
Формат/Информация : Audio Coding 3
Расширение режима : CM (complete main)
Параметр Endianness формата : Big
Идентификатор кодека : A_AC3
Продолжительность : 1 ч. 39 м.
Вид битрейта : Постоянный
Битрейт : 640 Кбит/сек
Каналы : 6 каналов
Расположение каналов : Front: L C R, Side: L R, LFE
Частота : 48,0 КГц
Частота кадров : 31,250 кадров/сек (1536 spf)
Метод сжатия : С потерями
Размер потока : 454 Мбайт (4%)
Заголовок : AVO Гаврилов Андрей Юрьевич
Язык : Russian
Default : Нет
Forced : Нет

Аудио #3
Идентификатор : 4
Формат : AC-3
Формат/Информация : Audio Coding 3
Расширение режима : CM (complete main)
Параметр Endianness формата : Big
Идентификатор кодека : A_AC3
Продолжительность : 1 ч. 39 м.
Вид битрейта : Постоянный
Битрейт : 640 Кбит/сек
Каналы : 6 каналов
Расположение каналов : Front: L C R, Side: L R, LFE
Частота : 48,0 КГц
Частота кадров : 31,250 кадров/сек (1536 spf)
Метод сжатия : С потерями
Размер потока : 454 Мбайт (4%)
Заголовок : AVO Живов Юрий Викторович
Язык : Russian
Default : Нет
Forced : Нет

Аудио #4
Идентификатор : 5
Формат : AC-3
Формат/Информация : Audio Coding 3
Расширение режима : CM (complete main)
Параметр Endianness формата : Big
Идентификатор кодека : A_AC3
Продолжительность : 1 ч. 39 м.
Вид битрейта : Постоянный
Битрейт : 192 Кбит/сек
Каналы : 2 канала
Расположение каналов : Front: L R
Частота : 48,0 КГц
Частота кадров : 31,250 кадров/сек (1536 spf)
Метод сжатия : С потерями
Размер потока : 136 Мбайт (1%)
Заголовок : AVO Леша-прапорщик
Язык : Russian
Default : Нет
Forced : Нет

Аудио #5
Идентификатор : 6
Формат : DTS
Формат/Информация : Digital Theater Systems
Режим : 16
Параметр Endianness формата : Big
Идентификатор кодека : A_DTS
Продолжительность : 1 ч. 39 м.
Вид битрейта : Постоянный
Битрейт : 1509 Кбит/сек
Каналы : 6 каналов
Расположение каналов : Front: L C R, Side: L R, LFE
Частота : 48,0 КГц
Частота кадров : 93,750 кадра/сек (512 spf)
Битовая глубина : 24 бит
Метод сжатия : С потерями
Размер потока : 1,05 Гбайт (10%)
Язык : English
Default : Нет
Forced : Нет

Текст #1
Идентификатор : 7
Формат : UTF-8
Идентификатор кодека : S_TEXT/UTF8
Идентификатор кодека/Информация : UTF-8 Plain Text
Язык : Russian
Default : Нет
Forced : Нет

Текст #2
Идентификатор : 8
Формат : UTF-8
Идентификатор кодека : S_TEXT/UTF8
Идентификатор кодека/Информация : UTF-8 Plain Text
Язык : English
Default : Нет
Forced : Нет

Меню
00:00:00.000 : en:Chapter 01
00:05:26.200 : en:Chapter 02
00:09:45.585 : en:Chapter 03
00:14:07.721 : en:Chapter 04
00:23:54.224 : en:Chapter 05
00:31:55.788 : en:Chapter 06
00:39:14.143 : en:Chapter 07
00:44:42.054 : en:Chapter 08
00:49:25.128 : en:Chapter 09
00:55:21.318 : en:Chapter 10
01:01:59.048 : en:Chapter 11
01:09:29.874 : en:Chapter 12
01:16:17.573 : en:Chapter 13
01:22:34.866 : en:Chapter 14
01:26:14.752 : en:Chapter 15
01:34:15.650 : en:Chapter 16
01:39:07.816 : en:Chapter 17

 

Вложения

  • 55 KB Просмотры: 0
    Личеров 0
    Сидеров 0
    Файлов 1
    Объем 10,8 GB

Привет!

Мы группа людей которые решили помочь другим в решении их проблем, а так же пользователям с поиском самых свежих и качественных инфопродуктов. За 4 с небольшим месяца мы создали этот форум на который заходят ежедневно тысячи человек и посещаемость постоянно растёт. Мы создали панель лицензирования для защиты PHP скриптов от воровства и SEO панель для мониторинга наших сайтов и выбора верной стратегии их развития. Мы надеемся что то что мы создали пригодится Вам и возможно Вы поможете нам развиваться и совершенствоваться вместе с Вами.

Статистика форума

Темы
406.640
Сообщения
465.116
Пользователи
84.572
Новый пользователь
x485

Приложения форума для iOS и Android


У ркн там нет власти ;)
Приватные разговоры
Помощь Пользователи
    Вы не присоединились ни к одной комнате.