За последнюю неделю опубликовано 32 новых материалов.
Инструкция новичку Путеводитель по форуму Прокси для Telegram Показать подсказки , это бомба!

Скачать Отвязные приключения в Лондоне / Lost in London (2017) BDRemux 1080p | iTunes бесплатно через торрент

  • Поучаствуй (в качестве покупателя) в любых пяти совместных покупках (кроме завершённых и "Моментальных") и получи группу "Новичок" навсегда -> ссылка на раздел
  • Получай до 480 рублей за каждого приглашенного пользователя!
    представляем Вам очередное расширение партнерской программы, подробности описаны тут -> ссылка
  • 90% материалов доступно к скачиванию после простой регистрации!
    Если же ты хочешь скачивать материалы без требования оставлять отзывы то получи группу "Новичок", 10 способов повышения описаны тут -> ссылка
  • К сожалению количество битых ссылок растет и мы уже не можем их оперативно восстанавливать поэтому просим помощи у каждого нашего пользователя.
    С сегодняшнего дня, за каждую восстановленную ссылку мы заплатим Вам.
    Подробнее тут -> ссылка
  • Перенесем твои заслуги с другого ресурса!
    Мы понимаем как сложно прокачивать аккаунты на форумах, вроде раскачал аккаунт, а тут появляется ресурс в 100 раз круче но тоже с системой прокачки и снова качать аккаунт...
    Предлагаем вам перенести Ваши заслуги на другом подобном ресурсе к нам.
    Подробности описаны тут -> ссылка
  • Вы можете получать по 2.5% с каждой покупки и продажи на маркете! Подробности в теме Партнёрская программа
Если Вы не хотите скачивать, Вы всегда можетепосмотретьонлайн, просто нажмите кнопку ниже :

Открыть плеер

Torrent_Bot

Торрент-Бот
Бот форума
4 Окт 2016
93
160
20



Информация о фильме
Название: Отвязные приключения в Лондоне
Оригинальное название: Lost in London
Год выхода: 2017
Жанр: Драма, комедия
Режиссер: Вуди Харрельсон
В ролях: Дэниэл Рэдклифф, Вуди Харрельсон, Оуэн Уилсон, Элинор Мацуура, Мартин МакКанн, Уилли Нельсон, Боно, Амир Эль-Марси, Питер Фердинандо, Али Хьюсон

О фильме:
В основу сюжета фильма легли реальные события, происходившие с Вуди Харрельсоном в столице Великобритании. По воле случая главный герой оказывается в Лондоне. Чтобы скоротать время, он отправляется в местный паб… Но что-то пошло не так, когда Вуди встретил там своего старинного приятеля Оуэна. Всего за одну ночь он умудрился устроить невообразимый переполох. Ему удалось перевернуть с ног на голову весь город и оказаться в бурном водовороте самых необычных и забавных событий, которые только можно себе представить!



Страна: США, Великобритания
Студия: Waypoint Entertainment
Продолжительность: 01:43:42
Перевод: Дублированный | iTunes

Файл
Кодек: h.264
Качество: BDRemux 1080p
Видео: MPEG-4 AVC, 22.6 Mбит/с, 1920x1080, 23.976 кадр/с
Аудио #1 : AC3, 6 ch, 384 Кбит/с - Русский
Аудио #2 : DTS-HD MA, 6 ch, 1376 Кбит/с - Английский
Субтитры: Английские (*srt)
MI:
General
Unique ID : 319221090847485622163879666374579687900 (0xF027BEEB10BCDA6E3332B7B0CC1991DC)
Complete name : F:Новая папка (26)Lost.in.London.2017.BDREMUX 1080p.mkv
Format : Matroska
Format version : Version 4
File size : 17.7 GiB
Duration : 1 h 43 min
Overall bit rate mode : Variable
Overall bit rate : 24.4 Mb/s
Movie name : Lost.in.London.2017.BDREMUX 1080p
Encoded date : UTC 2020-06-08 11:07:18
Writing application : mkvmerge v29.0.0 ('Like It Or Not') 64-bit
Writing library : libebml v1.3.6 + libmatroska v1.4.9
Cover : Yes
Attachments : small_cover.jpg / small_cover_land.jpg / cover.jpg / cover_land.jpg / small_cover.jpg / small_cover_land.jpg / cover.jpg / cover_land.jpg

Video
ID : 1
Format : AVC
Format/Info : Advanced Video Codec
Format profile : [email protected]
Format settings : CABAC / 2 Ref Frames
Format settings, CABAC : Yes
Format settings, RefFrames : 2 frames
Codec ID : V_MPEG4/ISO/AVC
Duration : 1 h 43 min
Bit rate mode : Variable
Bit rate : 22.6 Mb/s
Maximum bit rate : 30.2 Mb/s
Width : 1 920 pixels
Height : 1 080 pixels
Display aspect ratio : 16:9
Frame rate mode : Constant
Frame rate : 23.976 (24000/1001) FPS
Color space : YUV
Chroma subsampling : 4:2:0
Bit depth : 8 bits
Scan type : Progressive
Bits/(Pixel*Frame) : 0.455
Stream size : 16.4 GiB (93%)
Title : Lost.in.London.2017.BDREMUX 1080p
Language : English
Default : No
Forced : No

Audio #1
ID : 2
Format : AC-3
Format/Info : Audio Coding 3
Commercial name : Dolby Digital
Codec ID : A_AC3
Duration : 1 h 43 min
Bit rate mode : Constant
Bit rate : 384 kb/s
Channel(s) : 6 channels
Channel layout : L R C LFE Ls Rs
Sampling rate : 48.0 kHz
Frame rate : 31.250 FPS (1536 SPF)
Bit depth : 16 bits
Compression mode : Lossy
Stream size : 284 MiB (2%)
Title : Dub ( iTunes)
Language : Russian
Service kind : Complete Main
Default : Yes
Forced : No

Audio #2
ID : 3
Format : DTS XLL
Format/Info : Digital Theater Systems
Commercial name : DTS-HD Master Audio
Codec ID : A_DTS
Duration : 1 h 43 min
Bit rate mode : Variable
Bit rate : 1 376 kb/s
Channel(s) : 6 channels
Channel layout : C L R Ls Rs LFE
Sampling rate : 48.0 kHz
Frame rate : 93.750 FPS (512 SPF)
Bit depth : 16 bits
Compression mode : Lossless
Delay relative to video : 1 ms
Stream size : 1 021 MiB (6%)
Title : Original (Eng)
Language : English
Default : No
Forced : No

Text
ID : 4
Format : UTF-8
Codec ID : S_TEXT/UTF8
Codec ID/Info : UTF-8 Plain Text
Duration : 1 h 43 min
Bit rate : 96 b/s
Count of elements : 2131
Stream size : 72.7 KiB (0%)
Title : English-SRT
Language : English
Default : No
Forced : No

Menu
00:00:00.000 : en:Chapter 01
00:01:04.856 : en:Chapter 02
00:11:02.953 : en:Chapter 03
00:21:11.311 : en:Chapter 04
00:28:17.070 : en:Chapter 05
00:34:34.196 : en:Chapter 06
00:49:05.901 : en:Chapter 07
00:59:26.604 : en:Chapter 08
01:07:03.435 : en:Chapter 09
01:13:21.772 : en:Chapter 10
01:25:45.014 : en:Chapter 11
01:40:33.360 : en:Chapter 12
Скриншоты
 

Вложения

  • 177,6 KB Просмотры: 0
    Личеров 0
    Сидеров 0
    Файлов 1
    Объем 17,7 GB

Привет!

Мы группа людей которые решили помочь другим в решении их проблем, а так же пользователям с поиском самых свежих и качественных инфопродуктов. За 4 с небольшим месяца мы создали этот форум на который заходят ежедневно тысячи человек и посещаемость постоянно растёт. Мы создали панель лицензирования для защиты PHP скриптов от воровства и SEO панель для мониторинга наших сайтов и выбора верной стратегии их развития. Мы надеемся что то что мы создали пригодится Вам и возможно Вы поможете нам развиваться и совершенствоваться вместе с Вами.

Статистика форума

Темы
406.616
Сообщения
465.078
Пользователи
84.484
Новый пользователь
Beatlman

Приложения форума для iOS и Android


У ркн там нет власти ;)
Приватные разговоры
Помощь Пользователи
    Вы не присоединились ни к одной комнате.