За последнюю неделю опубликовано 151 новых материалов.
Инструкция новичку Путеводитель по форуму Прокси для Telegram Показать подсказки , это бомба!

Скачать Отважное сердце / Brave Story (2006) BDRip от Deadmauvlad | P | Лицензия бесплатно через торрент

  • Поучаствуй (в качестве покупателя) в любых пяти совместных покупках (кроме завершённых и "Моментальных") и получи группу "Новичок" навсегда -> ссылка на раздел
  • Получай до 480 рублей за каждого приглашенного пользователя!
    представляем Вам очередное расширение партнерской программы, подробности описаны тут -> ссылка
  • 90% материалов доступно к скачиванию после простой регистрации!
    Если же ты хочешь скачивать материалы без требования оставлять отзывы то получи группу "Новичок", 10 способов повышения описаны тут -> ссылка
  • К сожалению количество битых ссылок растет и мы уже не можем их оперативно восстанавливать поэтому просим помощи у каждого нашего пользователя.
    С сегодняшнего дня, за каждую восстановленную ссылку мы заплатим Вам.
    Подробнее тут -> ссылка
  • Перенесем твои заслуги с другого ресурса!
    Мы понимаем как сложно прокачивать аккаунты на форумах, вроде раскачал аккаунт, а тут появляется ресурс в 100 раз круче но тоже с системой прокачки и снова качать аккаунт...
    Предлагаем вам перенести Ваши заслуги на другом подобном ресурсе к нам.
    Подробности описаны тут -> ссылка
  • Вы можете получать по 2.5% с каждой покупки и продажи на маркете! Подробности в теме Партнёрская программа

Torrent_Bot

Торрент-Бот
Бот форума
4 Окт 2016
124
92
20


Информация о фильме
Название: Отважное сердце
Оригинальное название: Brave Story
Год выхода: 2006
Жанр: приключения, фэнтези
Режиссер: Тигира Койти
В ролях: Такако Мацу, Эйдзи Уэнц, Мики Имаи, Таро Ишида, Широ Ито, Аяко Кавасуми, Кирин Кики, Ё Ойзуми, Тива Саито, Рай Шибата

Описание: Отец 10-летнего Ватару бросает семью ради другой женщины, а мать от стресса заболевает и ложится в больницу. И тогда мальчик решает изменить судьбу. С этой целью он отправляется в путешествие в волшебный мир, вход в который показал его друг Мицуру. В стране волшебников и чудовищ Ватару должен приложить всю свою храбрость, чтобы вместе с верными друзьями преодолеть испытания, встретить Богиню Судьбы и изменить свой удел.

Страна: Япония
Студия: Warner Brothers
Продолжительность: 01:52:03
Перевод: Профессиональный многоголосый, закадровый - MC Entertainment (Лицензия)



Файл
Качество: BDRip [Исходник: Blu-Ray DISK]
Формат видео: AVI
Кодек: XviD
Видео: 720x400 (16:9), 23.976 fps, 1 467 kb/s (0.212 bit/pixel)
Аудио #1: AC-3, 48.0 kHz, 6 ch, 384 kb/s, CBR | | MC Entertainment
Субтитры: Отсутствуют

MediaInfo
General
Complete name : [Deadmau- RAWS] Brave Story.2006.RUS.JAP.BDRip.Deadmauvlad.avi
Format : AVI
Format/Info : Audio Video Interleave
File size : 1.46 GiB
Duration : 1 h 52 min
Overall bit rate : 1 860 kb/s
Movie name : [Deadmau- RAWS] Brave Story.2006.RUS.JAP.BDRip.Deadmauvlad
Director : Encoder by Deadmauvlad
Genre : приключения, фэнтези
Writing application : VirtualDubMod 1.5.10.3 | www.virtualdub-fr.org || (build 2550/release)
Original source form/Name : Аниме
Copyright : Encoder by Deadmauvlad
Comment : Encoder by Deadmauvlad

Video
ID : 0
Format : MPEG-4 Visual
Format profile : Advanced Simple@L5
Format settings : BVOP1 / Custom Matrix
Format settings, BVOP : 1
Format settings, QPel : No
Format settings, GMC : No warppoints
Format settings, Matrix : Custom
Codec ID : XVID
Codec ID/Hint : XviD
Duration : 1 h 52 min
Bit rate : 1 467 kb/s
Width : 720 pixels
Height : 400 pixels
Display aspect ratio : 16:9
Frame rate : 23.976 (24000/1001) FPS
Color space : YUV
Chroma subsampling : 4:2:0
Bit depth : 8 bits
Scan type : Progressive
Compression mode : Lossy
Bits/(Pixel*Frame) : 0.212
Stream size : 1.15 GiB (79%)
Writing library : XviD 73

Audio
ID : 1
Format : AC-3
Format/Info : Audio Coding 3
Commercial name : Dolby Digital
Codec ID : 2000
Duration : 1 h 52 min
Bit rate mode : Constant
Bit rate : 384 kb/s
Channel(s) : 6 channels
Channel layout : L R C LFE Ls Rs
Sampling rate : 48.0 kHz
Frame rate : 31.250 FPS (1536 SPF)
Bit depth : 16 bits
Compression mode : Lossy
Stream size : 308 MiB (21%)
Alignment : Split accross interleaves
Interleave, duration : 42 ms (1.00 video frame)
Interleave, preload duration : 500 ms


Скриншоты

Сравнение с DVDRip
Сравнение с раздачейhttp://rutor.info/torrent/56788/otvazhnoe-serdce_brave-story-2006-dvdrip
>>>>> http://www.framecompare.com/image-compare/screenshotcomparison/JEM2FNNU

Скриншоты
DVDRip....................................................BDRip








 

Вложения

  • 2,7 KB Просмотры: 0
    Личеров 0
    Сидеров 0
    Файлов 1
    Объем 1,5 GB
Ваш e-mail не будет опубликован. Он потребуется для подтверждения Вашего поста.
Оформление текста Нажмите «Ввод», чтобы отправить ответ.

Привет!

Мы группа людей которые решили помочь другим в решении их проблем, а так же пользователям с поиском самых свежих и качественных инфопродуктов. За 4 с небольшим месяца мы создали этот форум на который заходят ежедневно тысячи человек и посещаемость постоянно растёт. Мы создали панель лицензирования для защиты PHP скриптов от воровства и SEO панель для мониторинга наших сайтов и выбора верной стратегии их развития. Мы надеемся что то что мы создали пригодится Вам и возможно Вы поможете нам развиваться и совершенствоваться вместе с Вами.

Статистика форума

Темы
378.561
Сообщения
417.565
Пользователи
48.913
Новый пользователь
лидока

Приложения форума для iOS и Android


У ркн там нет власти ;)
Приватные разговоры
Помощь Пользователи
    Вы не присоединились ни к одной комнате.