За последнюю неделю опубликовано 169 новых материалов.
Инструкция новичку Путеводитель по форуму Прокси для Telegram Показать подсказки , это бомба!

Скачать Отважное сердце / Brave Story (2006) BDRip 1080p от Deadmauvlad | P | Лицензия бесплатно через торрент

  • Поучаствуй (в качестве покупателя) в любых пяти совместных покупках (кроме завершённых и "Моментальных") и получи группу "Новичок" навсегда -> ссылка на раздел
  • Получай до 480 рублей за каждого приглашенного пользователя!
    представляем Вам очередное расширение партнерской программы, подробности описаны тут -> ссылка
  • 90% материалов доступно к скачиванию после простой регистрации!
    Если же ты хочешь скачивать материалы без требования оставлять отзывы то получи группу "Новичок", 10 способов повышения описаны тут -> ссылка
  • К сожалению количество битых ссылок растет и мы уже не можем их оперативно восстанавливать поэтому просим помощи у каждого нашего пользователя.
    С сегодняшнего дня, за каждую восстановленную ссылку мы заплатим Вам.
    Подробнее тут -> ссылка
  • Перенесем твои заслуги с другого ресурса!
    Мы понимаем как сложно прокачивать аккаунты на форумах, вроде раскачал аккаунт, а тут появляется ресурс в 100 раз круче но тоже с системой прокачки и снова качать аккаунт...
    Предлагаем вам перенести Ваши заслуги на другом подобном ресурсе к нам.
    Подробности описаны тут -> ссылка
  • Вы можете получать по 2.5% с каждой покупки и продажи на маркете! Подробности в теме Партнёрская программа

Torrent_Bot

Торрент-Бот
Бот форума
4 Окт 2016
124
97
20


Информация о фильме
Название: Отважное сердце
Оригинальное название: Brave Story
Год выхода: 2006
Жанр: приключения, фэнтези
Режиссер: Тигира Койти
В ролях: Такако Мацу, Эйдзи Уэнц, Мики Имаи, Таро Ишида, Широ Ито, Аяко Кавасуми, Кирин Кики, Ё Ойзуми, Тива Саито, Рай Шибата

Описание: Отец 10-летнего Ватару бросает семью ради другой женщины, а мать от стресса заболевает и ложится в больницу. И тогда мальчик решает изменить судьбу. С этой целью он отправляется в путешествие в волшебный мир, вход в который показал его друг Мицуру. В стране волшебников и чудовищ Ватару должен приложить всю свою храбрость, чтобы вместе с верными друзьями преодолеть испытания, встретить Богиню Судьбы и изменить свой удел.

Страна: Япония
Студия: Warner Brothers
Продолжительность: 01:52:03
Перевод #1: Профессиональный многоголосый, закадровый - MC Entertainment (Лицензия)
Перевод #2: Любительский Одноголосый Закадровый - Алекс Килька
Перевод #3:Русские субтитры + Оригинал



Файл
Качество: BDRip 1080p [8 bit] [Encoder by Deadmauvlad]
Формат видео: MKV
Кодек: AVC
Видео: 1920x1080 (16:9), 23.976 fps, 6 000 kb/s (0.121 bit/pixel)
Аудио #1: AC-3, 48.0 kHz, 6 ch, 384 kb/s, CBR | | MC Entertainment
Аудио #2: AC-3, 48.0 kHz, 6 ch, 448 kb/s, CBR | | Алекс Килька
Аудио №3: AC-3, 48.0 kHz, 6 ch, 640 kb/s, CBR | | Japan (Оригинал)
Субтитры: Russian (MC Entertainment), Russian (Dusker) , English (R1)

MediaInfo
General
Unique ID : 195158009554111403276483570928088217687 (0x92D210C13F6F7F78A5649ACF7D177857)
Complete name : D:фильмыFull HD[Deadmau- RAWS] Brave Story.2006.RUS.JAP.ENG.BDRip 1080p.Deadmauvlad.mkv
Format : Matroska
Format version : Version 2
File size : 5.85 GiB
Duration : 1 h 52 min
Overall bit rate : 7 476 kb/s
Movie name : [Deadmau- RAWS] Отважное сердце / Brave Story BDRip 1080p by Deadmauvlad RUS JAP ENG
Encoded date : UTC 2019-12-08 05:47:16
Writing application : mkvmerge v6.9.1 ('Blue Panther') 32bit built on Apr 18 2014 18:15:44
Writing library : libebml v1.3.0 + libmatroska v1.4.1

Video
ID : 1
Format : AVC
Format/Info : Advanced Video Codec
Format profile : High@L4.1
Format settings : CABAC / 4 Ref Frames
Format settings, CABAC : Yes
Format settings, ReFrames : 4 frames
Codec ID : V_MPEG4/ISO/AVC
Duration : 1 h 52 min
Bit rate : 6 000 kb/s
Width : 1 920 pixels
Height : 1 080 pixels
Display aspect ratio : 16:9
Frame rate mode : Constant
Frame rate : 23.976 (24000/1001) FPS
Color space : YUV
Chroma subsampling : 4:2:0
Bit depth : 8 bits
Scan type : Progressive
Bits/(Pixel*Frame) : 0.121
Stream size : 4.58 GiB (78%)
Title : Encoder by Deadmauvlad [Deadmau- RAWS]
Writing library : x264 core 148 r2638 7599210
Encoding settings : cabac=1 / ref=4 / deblock=1:-1:-1 / analyse=0x3:0x133 / me=umh / subme=10 / psy=1 / psy_rd=1.25:0.75 / mixed_ref=0 / me_range=32 / chroma_me=1 / trellis=2 / 8x8dct=1 / cqm=0 / deadzone=21,11 / fast_pskip=1 / chroma_qp_offset=-4 / threads=18 / lookahead_threads=4 / sliced_threads=0 / nr=0 / decimate=1 / interlaced=0 / bluray_compat=0 / constrained_intra=0 / bframes=12 / b_pyramid=2 / b_adapt=2 / b_bias=0 / direct=1 / weightb=1 / open_gop=0 / weightp=2 / keyint=240 / keyint_min=23 / scenecut=40 / intra_refresh=0 / rc_lookahead=60 / rc=2pass / mbtree=1 / bitrate=6000 / ratetol=1.0 / qcomp=0.50 / qpmin=1 / qpmax=69 / qpstep=4 / cplxblur=20.0 / qblur=0.5 / ip_ratio=1.50 / aq=1:1.50
Language : Russian
Default : Yes
Forced : No
Color range : Limited
Color primaries : BT.709
Transfer characteristics : BT.709
Matrix coefficients : BT.709

Audio #1
ID : 2
Format : AC-3
Format/Info : Audio Coding 3
Commercial name : Dolby Digital
Codec ID : A_AC3
Duration : 1 h 52 min
Bit rate mode : Constant
Bit rate : 384 kb/s
Channel(s) : 6 channels
Channel layout : L R C LFE Ls Rs
Sampling rate : 48.0 kHz
Frame rate : 31.250 FPS (1536 SPF)
Bit depth : 16 bits
Compression mode : Lossy
Stream size : 308 MiB (5%)
Title : Лицензия MC Entertainment
Language : Russian
Default : Yes
Forced : No

Audio #2
ID : 3
Format : AC-3
Format/Info : Audio Coding 3
Commercial name : Dolby Digital
Codec ID : A_AC3
Duration : 1 h 52 min
Bit rate mode : Constant
Bit rate : 448 kb/s
Channel(s) : 6 channels
Channel layout : L R C LFE Ls Rs
Sampling rate : 48.0 kHz
Frame rate : 31.250 FPS (1536 SPF)
Bit depth : 16 bits
Compression mode : Lossy
Stream size : 359 MiB (6%)
Title : AC3 5.1 448kbps - Алекс Килька
Language : Russian
Default : No
Forced : No

Audio #3
ID : 4
Format : AC-3
Format/Info : Audio Coding 3
Commercial name : Dolby Digital
Codec ID : A_AC3
Duration : 1 h 52 min
Bit rate mode : Constant
Bit rate : 640 kb/s
Channel(s) : 6 channels
Channel layout : L R C LFE Ls Rs
Sampling rate : 48.0 kHz
Frame rate : 31.250 FPS (1536 SPF)
Bit depth : 16 bits
Compression mode : Lossy
Stream size : 513 MiB (9%)
Title : Original
Language : Japanese
Default : No
Forced : No

Text #1
ID : 5
Format : ASS
Codec ID : S_TEXT/ASS
Codec ID/Info : Advanced Sub Station Alpha
Compression mode : Lossless
Title : Лицензия MC Entertainment
Language : Russian
Default : No
Forced : No

Text #2
ID : 6
Format : ASS
Codec ID : S_TEXT/ASS
Codec ID/Info : Advanced Sub Station Alpha
Compression mode : Lossless
Title : Dusker
Language : Russian
Default : No
Forced : No

Text #3
ID : 7
Format : ASS
Codec ID : S_TEXT/ASS
Codec ID/Info : Advanced Sub Station Alpha
Compression mode : Lossless
Title : ENGLISH Sub by R1
Language : English
Default : No
Forced : No
Оригинал VS Рип

Скриншоты

ЦитатаКто-то писал:
Lite Denoise + Debanding thx help by Neko_FeliXXX


Релиз / Автор рипа: Deadmauvlad

 

Вложения

  • 8,3 KB Просмотры: 0
    Личеров 0
    Сидеров 0
    Файлов 1
    Объем 5,9 GB
Ваш e-mail не будет опубликован. Он потребуется для подтверждения Вашего поста.
Оформление текста Нажмите «Ввод», чтобы отправить ответ.

Привет!

Мы группа людей которые решили помочь другим в решении их проблем, а так же пользователям с поиском самых свежих и качественных инфопродуктов. За 4 с небольшим месяца мы создали этот форум на который заходят ежедневно тысячи человек и посещаемость постоянно растёт. Мы создали панель лицензирования для защиты PHP скриптов от воровства и SEO панель для мониторинга наших сайтов и выбора верной стратегии их развития. Мы надеемся что то что мы создали пригодится Вам и возможно Вы поможете нам развиваться и совершенствоваться вместе с Вами.

Статистика форума

Темы
380.713
Сообщения
420.372
Пользователи
50.706
Новый пользователь
Pes_pes

Приложения форума для iOS и Android


У ркн там нет власти ;)
Приватные разговоры
Помощь Пользователи
    Вы не присоединились ни к одной комнате.