За последнюю неделю опубликовано 17 новых материалов.
Инструкция новичку Путеводитель по форуму Прокси для Telegram Показать подсказки , это бомба!

Скачать Отпетые мошенники / Dirty Rotten Scoundrels (1988) BDRip 720p | D, P, A бесплатно через торрент

  • Поучаствуй (в качестве покупателя) в любых пяти совместных покупках (кроме завершённых и "Моментальных") и получи группу "Новичок" навсегда -> ссылка на раздел
  • Получай до 480 рублей за каждого приглашенного пользователя!
    представляем Вам очередное расширение партнерской программы, подробности описаны тут -> ссылка
  • 90% материалов доступно к скачиванию после простой регистрации!
    Если же ты хочешь скачивать материалы без требования оставлять отзывы то получи группу "Новичок", 10 способов повышения описаны тут -> ссылка
  • К сожалению количество битых ссылок растет и мы уже не можем их оперативно восстанавливать поэтому просим помощи у каждого нашего пользователя.
    С сегодняшнего дня, за каждую восстановленную ссылку мы заплатим Вам.
    Подробнее тут -> ссылка
  • Перенесем твои заслуги с другого ресурса!
    Мы понимаем как сложно прокачивать аккаунты на форумах, вроде раскачал аккаунт, а тут появляется ресурс в 100 раз круче но тоже с системой прокачки и снова качать аккаунт...
    Предлагаем вам перенести Ваши заслуги на другом подобном ресурсе к нам.
    Подробности описаны тут -> ссылка
  • Вы можете получать по 2.5% с каждой покупки и продажи на маркете! Подробности в теме Партнёрская программа
Если Вы не хотите скачивать, Вы всегда можетепосмотретьонлайн, просто нажмите кнопку ниже :

Открыть плеер

Torrent_Bot

Торрент-Бот
Бот форума
4 Окт 2016
122
116
20



Название: Отпетые мошенники
Оригинальное название: Dirty Rotten Scoundrels
Год выхода: 1988
Страна: США
Жанр:комедия, криминал
Режиссер: Фрэнк Оз / Frank Oz
В ролях: Стив Мартин, Майкл Кейн, Гленн Хедли, Антон Роджерс, Барбара Харрис, Иэн МакДайармид, Дэна Айви, Меган Фэй, Фрэнсис Конрой, Николь Кальфан, Айна Валле, Шерил Пэй, Натали Оффре, Лолли Сьюзи, Руперт Холидэй-Эванс, Хепберн Грэхэм, Ксавье Мали, Андре Пенверн, Луис Зорик, Жорж Джеррард Баффо, Валери Бофил, Патриция Дэвидсон

О фильме: Профессиональный жигало очень высокого класса Лоуренс Джемисон (Майкл Кейн), путешествуя по модным и престижным курортам, знакомится с экзальтированными и богатыми женщинами. Представляется принцем в изгнании, какой-нибудь несуществующей страны, пользуясь своим недюжинным обаянием, добивается того, чтобы доверчивые тетки делали крупные денежные взносы в фонд освобождения родной страны Лоуренса. Как- то раз, возвращаясь из Цюриха, где он хранит свои "кровно заработанные" денежки, Джемисон встречает в вагоне-ресторане Фреди Бенсона (Стив Мартин), который тоже специализируется в этой области. Фреди еще молодой, неопытный, но Лоуренс предчувствует, что приморский курортный городок станет тесен для двоих. И он всячески пытается избавиться от конкурента. Однако Бенсона настолько же умен, насколько и молод, он достаточно быстро приспосабливается к новой обстановке и повышает свой профессиональный класс. В это время, на этот же курорт приезжает молоденькая куколка Джанет Колгейт, дочь крупного промышленника. У неё очень много денег и два профессионала мигом слетаются, чтобы окучить эту "дурочку". Между ними возникает соревнование, вначале за деньги Джанет, а потом деньги уходят на второй план. На карту поставлена профессиональная честь. И все делается для того, чтобы быть первым…




Продолжительность: 01:50:21
Перевод: Дублированный, авторский (одноголосый закадровый)(Михалев), профессиональный (многоголосый закадровый)
Субтитры: русские, английские

О файле:
Качество: BDRip 720p
Формат: MKV
Видео: 1280x694 (1.85:1), 23.976 fps, ~7120 Kbps, 0.33 bit/pixel
Аудио 1: AC3, 2ch, 48kHz, 192Kbps - дублированный
Аудио 2: AC3, 6ch, 48kHz, 640Kbps - авторский А.Михалев
Аудио 3: AC3, 2ch, 48kHz, 192Kbps - многоголосый R5
Аудио 4: AC3, 2ch, 48kHz, 192Kbps - многоголосый НТВ
Аудио 5: AC3, 6ch, 48kHz, 384Kbps - многоголосый
Аудио 6: AC3, 6ch, 48kHz, 640Kbps - оригинал

MediaInfo
Complete name : E:...Dirty.Rotten.Scoundrels.1988.720p.BDRip.x264.AC3.Rus.Eng-E76.mkv
Format : Matroska
File size : 7.22 GiB
Duration : 1h 50mn
Overall bit rate : 9 366 Kbps
Encoded date : UTC 2011-05-26 01:49:18
Writing application : mkvmerge v4.0.0 ('The Stars were mine') сборка от Jun 6 2010 16:18:42
Writing library : libebml v1.0.0 + libmatroska v1.0.0
Video
ID : 1
Format : AVC
Format/Info : Advanced Video Codec
Format profile : High@L4.1
Format settings, CABAC : Yes
Format settings, ReFrames : 8 frames
Codec ID : V_MPEG4/ISO/AVC
Duration : 1h 50mn
Bit rate : 6 940 Kbps
Width : 1 280 pixels
Height : 694 pixels
Display aspect ratio : 16:9
Frame rate : 23.976 fps
Color space : YUV
Chroma subsampling : 4:2:0
Bit depth : 8 bits
Scan type : Progressive
Bits/(Pixel*Frame) : 0.326
Stream size : 5.35 GiB (74%)
Writing library : x264 core 115 r1947 b5a8ad7
Encoding settings : cabac=1 / ref=8 / deblock=1:-3:-3 / analyse=0x3:0x113 / me=umh / subme=10 / psy=1 / psy_rd=0.92:0.20 / mixed_ref=1 / me_range=32 / chroma_me=1 / trellis=2 / 8x8dct=1 / cqm=0 / deadzone=21,11 / fast_pskip=1 / chroma_qp_offset=-3 / threads=6 / sliced_threads=0 / nr=0 / decimate=1 / interlaced=0 / bluray_compat=0 / constrained_intra=0 / bframes=5 / b_pyramid=2 / b_adapt=2 / b_bias=0 / direct=1 / weightb=1 / open_gop=0 / weightp=2 / keyint=250 / keyint_min=23 / scenecut=40 / intra_refresh=0 / rc_lookahead=40 / rc=crf / mbtree=0 / crf=19.0 / qcomp=0.70 / qpmin=0 / qpmax=69 / qpstep=4 / vbv_maxrate=50000 / vbv_bufsize=62500 / crf_max=0.0 / nal_hrd=none / ip_ratio=1.40 / pb_ratio=1.30 / aq=1:0.80 / zones=155800,158746,q=35
Language : English
Audio #1
ID : 2
Format : AC-3
Format/Info : Audio Coding 3
Mode extension : CM (complete main)
Codec ID : A_AC3
Duration : 1h 50mn
Bit rate mode : Constant
Bit rate : 192 Kbps
Channel(s) : 2 channels
Channel positions : Front: L R
Sampling rate : 48.0 KHz
Bit depth : 16 bits
Compression mode : Lossy
Stream size : 152 MiB (2%)
Title : Dub
Language : Russian
Audio #2
ID : 3
Format : AC-3
Format/Info : Audio Coding 3
Mode extension : CM (complete main)
Codec ID : A_AC3
Duration : 1h 50mn
Bit rate mode : Constant
Bit rate : 640 Kbps
Channel(s) : 6 channels
Channel positions : Front: L C R, Side: L R, LFE
Sampling rate : 48.0 KHz
Bit depth : 16 bits
Compression mode : Lossy
Stream size : 505 MiB (7%)
Title : AVO Mikhalev
Language : Russian
Audio #3
ID : 4
Format : AC-3
Format/Info : Audio Coding 3
Mode extension : CM (complete main)
Codec ID : A_AC3
Duration : 1h 50mn
Bit rate mode : Constant
Bit rate : 192 Kbps
Channel(s) : 2 channels
Channel positions : Front: L R
Sampling rate : 48.0 KHz
Bit depth : 16 bits
Compression mode : Lossy
Stream size : 152 MiB (2%)
Title : MVO R5
Language : Russian
Audio #4
ID : 5
Format : AC-3
Format/Info : Audio Coding 3
Mode extension : CM (complete main)
Codec ID : A_AC3
Duration : 1h 50mn
Bit rate mode : Constant
Bit rate : 192 Kbps
Channel(s) : 2 channels
Channel positions : Front: L R
Sampling rate : 48.0 KHz
Bit depth : 16 bits
Compression mode : Lossy
Stream size : 152 MiB (2%)
Title : MVO NTV
Language : Russian
Audio #5
ID : 6
Format : AC-3
Format/Info : Audio Coding 3
Mode extension : CM (complete main)
Codec ID : A_AC3
Duration : 1h 50mn
Bit rate mode : Constant
Bit rate : 384 Kbps
Channel(s) : 6 channels
Channel positions : Front: L C R, Side: L R, LFE
Sampling rate : 48.0 KHz
Bit depth : 16 bits
Compression mode : Lossy
Stream size : 303 MiB (4%)
Title : MVO
Language : Russian
Audio #6
ID : 7
Format : AC-3
Format/Info : Audio Coding 3
Mode extension : CM (complete main)
Codec ID : A_AC3
Duration : 1h 50mn
Bit rate mode : Constant
Bit rate : 640 Kbps
Channel(s) : 6 channels
Channel positions : Front: L C R, Side: L R, LFE
Sampling rate : 48.0 KHz
Bit depth : 16 bits
Compression mode : Lossy
Stream size : 505 MiB (7%)
Title : Original
Language : English
Text #1
ID : 8
Format : UTF-8
Codec ID : S_TEXT/UTF8
Codec ID/Info : UTF-8 Plain Text
Language : Russian
Text #2
ID : 9
Format : UTF-8
Codec ID : S_TEXT/UTF8
Codec ID/Info : UTF-8 Plain Text
Language : English
Скриншоты
 

Вложения

  • 37,1 KB Просмотры: 0
    Личеров 0
    Сидеров 0
    Файлов 1
    Объем 7,2 GB

Привет!

Мы группа людей которые решили помочь другим в решении их проблем, а так же пользователям с поиском самых свежих и качественных инфопродуктов. За 4 с небольшим месяца мы создали этот форум на который заходят ежедневно тысячи человек и посещаемость постоянно растёт. Мы создали панель лицензирования для защиты PHP скриптов от воровства и SEO панель для мониторинга наших сайтов и выбора верной стратегии их развития. Мы надеемся что то что мы создали пригодится Вам и возможно Вы поможете нам развиваться и совершенствоваться вместе с Вами.

Статистика форума

Темы
385.039
Сообщения
430.191
Пользователи
62.753
Новый пользователь
Sashaart228

Приложения форума для iOS и Android


У ркн там нет власти ;)
Приватные разговоры
Помощь Пользователи
    Вы не присоединились ни к одной комнате.