За последнюю неделю опубликовано 60 новых материалов.
Инструкция новичку Путеводитель по форуму Прокси для Telegram Показать подсказки , это бомба!

Скачать Отель Мумбаи: Противостояние / Hotel Mumbai (2018) BDRip 1080p от OlLanDGroup | CAN Transfer | iTunes бесплатно через торрент

  • Поучаствуй (в качестве покупателя) в любых пяти совместных покупках (кроме завершённых и "Моментальных") и получи группу "Новичок" навсегда -> ссылка на раздел
  • Получай до 480 рублей за каждого приглашенного пользователя!
    представляем Вам очередное расширение партнерской программы, подробности описаны тут -> ссылка
  • 90% материалов доступно к скачиванию после простой регистрации!
    Если же ты хочешь скачивать материалы без требования оставлять отзывы то получи группу "Новичок", 10 способов повышения описаны тут -> ссылка
  • К сожалению количество битых ссылок растет и мы уже не можем их оперативно восстанавливать поэтому просим помощи у каждого нашего пользователя.
    С сегодняшнего дня, за каждую восстановленную ссылку мы заплатим Вам.
    Подробнее тут -> ссылка
  • Перенесем твои заслуги с другого ресурса!
    Мы понимаем как сложно прокачивать аккаунты на форумах, вроде раскачал аккаунт, а тут появляется ресурс в 100 раз круче но тоже с системой прокачки и снова качать аккаунт...
    Предлагаем вам перенести Ваши заслуги на другом подобном ресурсе к нам.
    Подробности описаны тут -> ссылка
  • Вы можете получать по 2.5% с каждой покупки и продажи на маркете! Подробности в теме Партнёрская программа
Если Вы не хотите скачивать, Вы всегда можетепосмотретьонлайн, просто нажмите кнопку ниже :

Открыть плеер

Torrent_Bot

Торрент-Бот
Бот форума
4 Окт 2016
81
189
20


Информация о фильме


Название: Отель Мумбаи: Противостояние
Оригинальное название: Hotel Mumbai
Год выпуска: 2018
Жанр:Триллер, драма, история
Выпущено: США, Австралия, A Hamilton and Electric Pictures Production, American Entertainment Investors, Cyan Films
Режиссер: Энтони Марас
В ролях: Арми Хаммер, Джейсон Айзекс, Назанин Бониади, Дев Патель, Наташа Лю Бордиццо, Амандип Сингх, Сухаил Найар, Манодж Мера, Динеш Кумар, Амриптал Сингх


О фильме: События фильма, основанного на реальных событиях, разворачиваются в конце ноября 2008 года в отеле Тадж-Махал Палас в Мумбаи. День в одной из самых роскошных гостиниц города начинается с обычной рутины: персонал размещает новых постояльцев, повара трудятся на кухне, а горничные убирают номера. Утром в отеле регистрируется американец Дэвид вместе со своей женой Захрой, ребенком и его няней, но их отдых прерывается группой террористов, которые врываются в гостиницу и начинают расстреливать всех подряд. Одному из работников кухни удается вывести часть гостей, а Дэвид решает пробраться в свой номер, чтобы спасти ребенка. Тем временем местная полиция делает все возможное, чтобы остановить волну насилия.





Качество: BDRip (1080p)
Видео: MPEG-4 AVC, 12944 Kбит/с, 1920х800, 23.976 Кадр/c
Аудио: Русский (AC3, 6 ch, 384 Кбит/с), английский (DTS, 6 ch, 1509 Кбит/с)
Размер: 12.77 ГБ
Продолжительность: 02:02:53
Перевод: Дублированный
Субтитры: Aнглийские


Озвучивание - Дублированное (iTunes)
Сохранены оригинальные чаптеры как на Blu-Ray.
*** Видеоряд без английского хардсаба.

x264
x264 [info]: frame I:1021 Avg QP:14.87 size:194815
x264 [info]: frame P:39745 Avg QP:17.65 size:118980
x264 [info]: frame B:136512 Avg QP:19.01 size: 51511
x264 [info]: consecutive B-frames: 2.9% 3.7% 9.6% 13.8% 8.4% 55.0% 2.5% 0.3% 0.9% 1.0% 1.8%
x264 [info]: mb I I16..4: 36.8% 41.8% 21.4%
x264 [info]: mb P I16..4: 10.0% 24.8% 3.7% P16..4: 21.9% 26.1% 6.6% 1.0% 0.0% skip: 5.9%
x264 [info]: mb B I16..4: 0.7% 2.6% 0.2% B16..8: 43.6% 23.2% 3.5% direct: 7.5% skip:18.7% L0:48.5% L1:39.9% BI:11.6%
x264 [info]: 8x8 transform intra:65.8% inter:39.4%
x264 [info]: direct mvs spatial:98.1% temporal:1.9%
x264 [info]: coded y,uvDC,uvAC intra: 96.7% 90.3% 71.7% inter: 47.5% 43.7% 15.7%
x264 [info]: i16 v,h,dc,p: 4% 2% 33% 60%
x264 [info]: i8 v,h,dc,ddl,ddr,vr,hd,vl,hu: 7% 8% 15% 9% 12% 11% 13% 11% 14%
x264 [info]: i4 v,h,dc,ddl,ddr,vr,hd,vl,hu: 9% 8% 16% 8% 11% 10% 12% 9% 15%
x264 [info]: i8c dc,h,v,p: 47% 19% 17% 16%
x264 [info]: Weighted P-Frames: Y:1.7% UV:0.9%
x264 [info]: ref P L0: 48.1% 8.2% 23.9% 9.9% 8.7% 1.2% 0.0%
x264 [info]: ref B L0: 79.6% 14.0% 5.1% 1.4%
x264 [info]: ref B L1: 94.4% 5.6%
x264 [info]: kb/s:12939.91
Инфо-файл
Общее
Уникальный идентификатор : 221857614081602167808281533213031269225 (0xA6E838E464B4E64AA104674543340369)
Полное имя : D:ЗагрузкиHotel.Mumbai.2018.x264.BDRip.(1080p).OlLanDGroup.mkv
Формат : Matroska
Версия формата : Version 4 / Version 2
Размер файла : 12,8 Гбайт
Продолжительность : 2 ч. 3 м.
Общий поток : 14,8 Мбит/сек
Название фильма : Отель Мумбаи: Противостояние.2018.Rip by: ollan
Дата кодирования : UTC 2019-06-23 10:04:43
Программа кодирования : mkvmerge v6.5.0 ('Isn't she lovely') built on Oct 20 2013 12:50:05
Библиотека кодирования : libebml v1.3.0 + libmatroska v1.4.1
Обложка : Yes
Attachments : Cover - Hotel.Mumbai.png

Видео
Идентификатор : 1
Формат : AVC
Формат/Информация : Advanced Video Codec
Профиль формата : [email protected]
Настройки формата : CABAC / 5 Ref Frames
Параметр CABAC формата : Да
Параметр ReFrames формата : 5 кадров
Идентификатор кодека : V_MPEG4/ISO/AVC
Продолжительность : 2 ч. 3 м.
Битрейт : 12,9 Мбит/сек
Ширина : 1920 пикселей
Высота : 800 пикселей
Соотношение сторон : 2,40:1
Режим частоты кадров : Постоянный
Частота кадров : 23,976 (24000/1001) кадра/сек
Цветовое пространство : YUV
Субдискретизация насыщенности : 4:2:0
Битовая глубина : 8 бит
Тип развёртки : Прогрессивная
Бит/(Пиксели*Кадры) : 0.351
Размер потока : 10,9 Гбайт (85%)
Библиотека кодирования : x264 core 146 r2538 121396c
Настройки программы : cabac=1 / ref=5 / deblock=1:-3:-3 / analyse=0x3:0x133 / me=umh / subme=11 / psy=1 / psy_rd=0.90:0.15 / mixed_ref=1 / me_range=64 / chroma_me=1 / trellis=2 / 8x8dct=1 / cqm=0 / deadzone=21,11 / fast_pskip=0 / chroma_qp_offset=-3 / threads=12 / lookahead_threads=3 / sliced_threads=0 / nr=0 / decimate=0 / interlaced=0 / bluray_compat=0 / constrained_intra=0 / bframes=10 / b_pyramid=2 / b_adapt=2 / b_bias=0 / direct=3 / weightb=1 / open_gop=0 / weightp=2 / keyint=240 / keyint_min=23 / scenecut=40 / intra_refresh=0 / rc_lookahead=40 / rc=2pass / mbtree=0 / bitrate=12944 / ratetol=1.0 / qcomp=0.60 / qpmin=0 / qpmax=69 / qpstep=4 / cplxblur=20.0 / qblur=0.5 / vbv_maxrate=50000 / vbv_bufsize=62500 / nal_hrd=none / filler=0 / ip_ratio=1.40 / pb_ratio=1.30 / aq=1:1.00
Язык : English
Default : Да
Forced : Нет

Аудио #1
Идентификатор : 2
Формат : AC-3
Формат/Информация : Audio Coding 3
Идентификатор кодека : A_AC3
Продолжительность : 2 ч. 3 м.
Вид битрейта : Постоянный
Битрейт : 384 Кбит/сек
Каналы : 6 каналов
Расположение каналов : Front: L C R, Side: L R, LFE
Частота : 48,0 КГц
Частота кадров : 31,250 кадров/сек (1536 SPF)
Битовая глубина : 16 бит
Метод сжатия : С потерями
Размер потока : 338 Мбайт (3%)
Заголовок : Дулированный (iTunes)
Язык : Russian
Service kind : Complete Main
Default : Да
Forced : Нет

Аудио #2
Идентификатор : 3
Формат : DTS
Формат/Информация : Digital Theater Systems
Идентификатор кодека : A_DTS
Продолжительность : 2 ч. 3 м.
Вид битрейта : Постоянный
Битрейт : 1509 Кбит/сек
Каналы : 6 каналов
Расположение каналов : Front: L C R, Side: L R, LFE
Частота : 48,0 КГц
Частота кадров : 93,750 кадра/сек (512 SPF)
Битовая глубина : 24 бит
Метод сжатия : С потерями
Размер потока : 1,30 Гбайт (10%)
Язык : English
Default : Нет
Forced : Нет

Текст
Идентификатор : 4
Формат : UTF-8
Идентификатор кодека : S_TEXT/UTF8
Идентификатор кодека/Информация : UTF-8 Plain Text
Заголовок : Full
Язык : English
Default : Нет
Forced : Нет

Меню
00:00:00.000 : en:Chapter 01
00:16:11.929 : en:Chapter 02
00:31:33.182 : en:Chapter 03
00:46:10.768 : en:Chapter 04
01:00:30.084 : en:Chapter 05
01:15:30.734 : en:Chapter 06
01:37:40.229 : en:Chapter 07
01:55:54.656 : en:Chapter 08
02:03:13.969 : en:Chapter 09
Скриншоты


Релиз от: Rip by:
 

Вложения

  • 32,9 KB Просмотры: 1
    Личеров 0
    Сидеров 0
    Файлов 1
    Объем 12,8 GB

Привет!

Мы группа людей которые решили помочь другим в решении их проблем, а так же пользователям с поиском самых свежих и качественных инфопродуктов. За 4 с небольшим месяца мы создали этот форум на который заходят ежедневно тысячи человек и посещаемость постоянно растёт. Мы создали панель лицензирования для защиты PHP скриптов от воровства и SEO панель для мониторинга наших сайтов и выбора верной стратегии их развития. Мы надеемся что то что мы создали пригодится Вам и возможно Вы поможете нам развиваться и совершенствоваться вместе с Вами.

Статистика форума

Темы
412.947
Сообщения
472.272
Пользователи
93.215
Новый пользователь
tvskiss

Приложения форума для iOS и Android


У ркн там нет власти ;)
Приватные разговоры
Помощь Пользователи
    Вы не присоединились ни к одной комнате.