За последнюю неделю опубликовано 57 новых материалов.
Инструкция новичку Путеводитель по форуму Прокси для Telegram Показать подсказки , это бомба!

Скачать Отель «Маскарад» / Masukaredo hoteru / Masquerade Hotel (2019) HDRip-AVC от MediaBit | L2 бесплатно через торрент

  • Поучаствуй (в качестве покупателя) в любых пяти совместных покупках (кроме завершённых и "Моментальных") и получи группу "Новичок" навсегда -> ссылка на раздел
  • Получай до 480 рублей за каждого приглашенного пользователя!
    представляем Вам очередное расширение партнерской программы, подробности описаны тут -> ссылка
  • 90% материалов доступно к скачиванию после простой регистрации!
    Если же ты хочешь скачивать материалы без требования оставлять отзывы то получи группу "Новичок", 10 способов повышения описаны тут -> ссылка
  • К сожалению количество битых ссылок растет и мы уже не можем их оперативно восстанавливать поэтому просим помощи у каждого нашего пользователя.
    С сегодняшнего дня, за каждую восстановленную ссылку мы заплатим Вам.
    Подробнее тут -> ссылка
  • Перенесем твои заслуги с другого ресурса!
    Мы понимаем как сложно прокачивать аккаунты на форумах, вроде раскачал аккаунт, а тут появляется ресурс в 100 раз круче но тоже с системой прокачки и снова качать аккаунт...
    Предлагаем вам перенести Ваши заслуги на другом подобном ресурсе к нам.
    Подробности описаны тут -> ссылка
  • Вы можете получать по 2.5% с каждой покупки и продажи на маркете! Подробности в теме Партнёрская программа
Если Вы не хотите скачивать, Вы всегда можетепосмотретьонлайн, просто нажмите кнопку ниже :

Открыть плеер

Torrent_Bot

Торрент-Бот
Бот форума
4 Окт 2016
92
163
20



Информация о фильме
Название: Отель «Маскарад»
Оригинальное название: Masukaredo hoteru / Masquerade Hotel
Год выхода: 2019
Жанр: Детектив, драма, криминал
Режиссер: Масаюки Судзуки
В ролях: Такуя Кимура, Масами Нагасава, Фумиё Кохината, Дзэн Кадзихара, Юки Идзумисава, Тосихидэ Тонэсаку, Рэн Исикава, Гаку Хамада, Ацуко Маэда, Такаси Сасано

О фильме:
Полиция Токио расследует три случая убийства. Между жертвами нет очевидной связи, почерк совершения преступлений не совпадает, но на каждом месте была найдена записка с цифрами, поэтому детективы считают, что в городе завелся серийный убийца. Выясняется, что в каждом случае числа указывают на место следующего преступления, и выходит, что новое убийство состоится в шикарном отеле, где безопасность гостей ценят превыше всего. Убойный отдел устраивает туда своих оперативников, и своенравному детективу Нитте достаётся место за стойкой регистрации. Теперь сотруднице отеля придётся сильно постараться, чтобы сделать из своего нового подопечного идеального ресепшиониста.



Страна: Япония
Студия: Cine Bazar, Fuji Television Network
Продолжительность: 02:13:02
Перевод: Любительский двухголосый

Файл
Кодек: MPEG-4 AVC
Качество: HDRip-AVC
Видео: 2035 Кбит/с, 1024x428, 23.976 кадр/с
Звук:
Аудио #1: Русский - AC3, 6 ch, 448 | Любительский двухголосый (Asian Miracle Group)
Аудио #2: Японский - AC3, 6 ch, 448 Кбит/с | Оригинал
Субтитры: Русские, английские

Семпл
MI
General
Unique ID : 251463888045695453306379380544426441022 (0xBD2E2EE5AA7C569E36457AA23EE3793E)
Complete name : D:2020 рипыКодекс вораOteli.Maskarad.2019.x264.HDRip(AVC)-MediaBit.mkv
Format : Matroska
Format version : Version 4 / Version 2
File size : 2.73 GiB
Duration : 2 h 13 min
Overall bit rate : 2 937 kb/s
Movie name : Отель «Маскарад» (2019)
Encoded date : UTC 2020-06-13 15:12:41
Writing application : mkvmerge v25.0.0 ('Prog Noir') 64-bit
Writing library : libebml v1.3.6 + libmatroska v1.4.9
Attachments : poster / calibrii.ttf / calibri.ttf / times.ttf / ariali.ttf / arial.ttf / poster.jpg

Video
ID : 1
Format : AVC
Format/Info : Advanced Video Codec
Format profile : [email protected]
Format settings : CABAC / 10 Ref Frames
Format settings, CABAC : Yes
Format settings, ReFrames : 10 frames
Codec ID : V_MPEG4/ISO/AVC
Duration : 2 h 13 min
Bit rate : 2 035 kb/s
Width : 1 024 pixels
Height : 428 pixels
Display aspect ratio : 2.40:1
Frame rate mode : Constant
Frame rate : 23.976 (24000/1001) FPS
Color space : YUV
Chroma subsampling : 4:2:0
Bit depth : 8 bits
Scan type : Progressive
Bits/(Pixel*Frame) : 0.194
Stream size : 1.89 GiB (69%)
Title : MediaBit
Writing library : x264 core 157 r2958 57baac4
Encoding settings : cabac=1 / ref=10 / deblock=1:-3:-3 / analyse=0x3:0x133 / me=umh / subme=9 / psy=1 / psy_rd=1.00:0.15 / mixed_ref=1 / me_range=48 / chroma_me=1 / trellis=1 / 8x8dct=1 / cqm=0 / deadzone=21,11 / fast_pskip=1 / chroma_qp_offset=-3 / threads=6 / lookahead_threads=1 / sliced_threads=0 / nr=0 / decimate=1 / interlaced=0 / bluray_compat=0 / constrained_intra=0 / bframes=10 / b_pyramid=2 / b_adapt=2 / b_bias=10 / direct=3 / weightb=1 / open_gop=0 / weightp=2 / keyint=240 / keyint_min=24 / scenecut=23 / intra_refresh=0 / rc_lookahead=240 / rc=2pass / mbtree=1 / bitrate=2035 / ratetol=1.0 / qcomp=0.60 / qpmin=0 / qpmax=69 / qpstep=4 / cplxblur=20.0 / qblur=0.5 / ip_ratio=1.40 / aq=1:1.00
Language : Russian
Default : Yes
Forced : No

Audio #1
ID : 2
Format : AC-3
Format/Info : Audio Coding 3
Codec ID : A_AC3
Duration : 2 h 13 min
Bit rate mode : Constant
Bit rate : 448 kb/s
Channel(s) : 6 channels
Channel positions : Front: L C R, Side: L R, LFE
Sampling rate : 48.0 kHz
Frame rate : 31.250 FPS (1536 SPF)
Bit depth : 16 bits
Compression mode : Lossy
Stream size : 426 MiB (15%)
Title : DVO [Asian Miracle Group]
Language : Russian
Service kind : Complete Main
Default : Yes
Forced : No

Audio #2
ID : 3
Format : AC-3
Format/Info : Audio Coding 3
Codec ID : A_AC3
Duration : 2 h 13 min
Bit rate mode : Constant
Bit rate : 448 kb/s
Channel(s) : 6 channels
Channel positions : Front: L C R, Side: L R, LFE
Sampling rate : 48.0 kHz
Frame rate : 31.250 FPS (1536 SPF)
Bit depth : 16 bits
Compression mode : Lossy
Stream size : 426 MiB (15%)
Language : Japanese
Service kind : Complete Main
Default : No
Forced : No

Text #1
ID : 4
Format : ASS
Codec ID : S_TEXT/ASS
Codec ID/Info : Advanced Sub Station Alpha
Duration : 2 h 9 min
Bit rate : 144 b/s
Count of elements : 1762
Compression mode : Lossless
Stream size : 137 KiB (0%)
Title : 'ФСБ Birdman Fansubs'
Language : Russian
Default : No
Forced : No

Text #2
ID : 5
Format : ASS
Codec ID : S_TEXT/ASS
Codec ID/Info : Advanced Sub Station Alpha
Duration : 2 h 9 min
Bit rate : 101 b/s
Count of elements : 1762
Compression mode : Lossless
Stream size : 96.7 KiB (0%)
Title : aoihachi
Language : English
Default : No
Forced : No

Menu
00:00:00.000 : :第 01 章
00:09:03.292 : :第 02 章
00:18:59.847 : :第 03 章
00:28:36.047 : :第 04 章
00:38:44.780 : :第 05 章
00:50:22.102 : :第 06 章
00:58:50.777 : :第 07 章
01:05:56.661 : :第 08 章
01:16:10.566 : :第 09 章
01:21:07.445 : :第 10 章
01:28:38.354 : :第 11 章
01:38:09.341 : :第 12 章
01:45:53.513 : :第 13 章
01:52:58.897 : :第 14 章
02:00:43.444 : :第 15 章
02:05:57.049 : :第 16 章
Скриншоты

Релиз от:
 

Вложения

  • 16,9 KB Просмотры: 0
    Личеров 0
    Сидеров 0
    Файлов 1
    Объем 2,7 GB

Привет!

Мы группа людей которые решили помочь другим в решении их проблем, а так же пользователям с поиском самых свежих и качественных инфопродуктов. За 4 с небольшим месяца мы создали этот форум на который заходят ежедневно тысячи человек и посещаемость постоянно растёт. Мы создали панель лицензирования для защиты PHP скриптов от воровства и SEO панель для мониторинга наших сайтов и выбора верной стратегии их развития. Мы надеемся что то что мы создали пригодится Вам и возможно Вы поможете нам развиваться и совершенствоваться вместе с Вами.

Статистика форума

Темы
406.698
Сообщения
465.162
Пользователи
84.787
Новый пользователь
Freckle

Приложения форума для iOS и Android


У ркн там нет власти ;)
Приватные разговоры
Помощь Пользователи
    Вы не присоединились ни к одной комнате.