За последнюю неделю опубликовано 57 новых материалов.
Инструкция новичку Путеводитель по форуму Прокси для Telegram Показать подсказки , это бомба!

Скачать Отель для самоубийц / Selvmordsturisten (2019) BDRemux 1080p | iTunes бесплатно через торрент

  • Поучаствуй (в качестве покупателя) в любых пяти совместных покупках (кроме завершённых и "Моментальных") и получи группу "Новичок" навсегда -> ссылка на раздел
  • Получай до 480 рублей за каждого приглашенного пользователя!
    представляем Вам очередное расширение партнерской программы, подробности описаны тут -> ссылка
  • 90% материалов доступно к скачиванию после простой регистрации!
    Если же ты хочешь скачивать материалы без требования оставлять отзывы то получи группу "Новичок", 10 способов повышения описаны тут -> ссылка
  • К сожалению количество битых ссылок растет и мы уже не можем их оперативно восстанавливать поэтому просим помощи у каждого нашего пользователя.
    С сегодняшнего дня, за каждую восстановленную ссылку мы заплатим Вам.
    Подробнее тут -> ссылка
  • Перенесем твои заслуги с другого ресурса!
    Мы понимаем как сложно прокачивать аккаунты на форумах, вроде раскачал аккаунт, а тут появляется ресурс в 100 раз круче но тоже с системой прокачки и снова качать аккаунт...
    Предлагаем вам перенести Ваши заслуги на другом подобном ресурсе к нам.
    Подробности описаны тут -> ссылка
  • Вы можете получать по 2.5% с каждой покупки и продажи на маркете! Подробности в теме Партнёрская программа
Если Вы не хотите скачивать, Вы всегда можетепосмотретьонлайн, просто нажмите кнопку ниже :

Открыть плеер

Torrent_Bot

Торрент-Бот
Бот форума
4 Окт 2016
92
163
20



Информация о фильме
Название: Отель для самоубийц
Оригинальное название: Selvmordsturisten
Год выхода: 2019
Жанр: Драма, детектив
Режиссер: Йонас Александр Арнбю
В ролях: Николай Костер-Валдау, Кейт Эшфилд, Тува Новотны, Роберт Арамайо, Ян Бейвут, Йоханна Вокалек, Соня Рихтер, Кая Уилкинс, Андерс Мосслинг, Педер Томас Педерсен

О фильме:
Макс работает страховым агентом и в разгар экзистенциального кризиса проводит расследование в отеле Аврора. Это уникальное тайное место, которое специализируется на тщательно разработанных фантазиях о самоубийстве. Его расследование раскрывает тревожную истину, заставляющую Макса подвергать сомнению саму природу жизни, смерти и его собственное восприятие реальности.



Страна: Дания, Норвегия, Германия
Студия: Snowglobe Films, Mer Film, Garage Film AB
Продолжительность: 01:29:27
Перевод: Дублированный | iTunes

Файл
Качество: BDRemux 1080p
Видео: VC-1, 1920х1080, ~15.6 Mb/s, 24.000 FPS
Аудио #1: AC3, 6 ch, 384 Kbps - Русский
Аудио #2: AC3, 6 ch, 448 Kbps - Датский
Субтитры: Датские (*srt)
MI:
General
Unique ID : 330837750359867783033100596330747606592 (0xF8E50873AEC515B8B43605FC0A2F3640)
Complete name : F:Новая папка (24)Selvmordsturisten.2019.BDREMUX 1080p.mkv
Format : Matroska
Format version : Version 4
File size : 10.3 GiB
Duration : 1 h 29 min
Overall bit rate : 16.4 Mb/s
Movie name : Selvmordsturisten.2019.BDREMUX 1080p
Encoded date : UTC 2020-04-25 13:32:48
Writing application : mkvmerge v29.0.0 ('Like It Or Not') 64-bit
Writing library : libebml v1.3.6 + libmatroska v1.4.9

Video
ID : 1
Format : VC-1
Format profile : [email protected]
Codec ID : V_MS/VFW/FOURCC / WVC1
Codec ID/Hint : Microsoft
Duration : 1 h 29 min
Bit rate : 15.6 Mb/s
Width : 1 920 pixels
Height : 1 080 pixels
Display aspect ratio : 16:9
Frame rate mode : Constant
Frame rate : 24.000 FPS
Color space : YUV
Chroma subsampling : 4:2:0
Bit depth : 8 bits
Scan type : Progressive
Compression mode : Lossy
Bits/(Pixel*Frame) : 0.314
Stream size : 9.76 GiB (95%)
Title : Selvmordsturisten.2019.BDREMUX 1080p
Language : English
Default : No
Forced : No

Audio #1
ID : 2
Format : AC-3
Format/Info : Audio Coding 3
Commercial name : Dolby Digital
Codec ID : A_AC3
Duration : 1 h 29 min
Bit rate mode : Constant
Bit rate : 384 kb/s
Channel(s) : 6 channels
Channel layout : L R C LFE Ls Rs
Sampling rate : 48.0 kHz
Frame rate : 31.250 FPS (1536 SPF)
Bit depth : 16 bits
Compression mode : Lossy
Stream size : 246 MiB (2%)
Title : Dub | iTunes
Language : Russian
Service kind : Complete Main
Default : Yes
Forced : No

Audio #2
ID : 3
Format : AC-3
Format/Info : Audio Coding 3
Commercial name : Dolby Digital
Codec ID : A_AC3
Duration : 1 h 29 min
Bit rate mode : Constant
Bit rate : 448 kb/s
Channel(s) : 6 channels
Channel layout : L R C LFE Ls Rs
Sampling rate : 48.0 kHz
Frame rate : 31.250 FPS (1536 SPF)
Bit depth : 16 bits
Compression mode : Lossy
Stream size : 287 MiB (3%)
Title : Original (Dan)
Language : Danish
Service kind : Complete Main
Default : No
Forced : No

Text #1
ID : 4
Format : UTF-8
Codec ID : S_TEXT/UTF8
Codec ID/Info : UTF-8 Plain Text
Duration : 1 h 28 min
Bit rate : 11 b/s
Count of elements : 240
Stream size : 7.24 KiB (0%)
Title : Danish (FORCED)
Language : Danish
Default : No
Forced : No

Text #2
ID : 5
Format : UTF-8
Codec ID : S_TEXT/UTF8
Codec ID/Info : UTF-8 Plain Text
Duration : 1 h 28 min
Bit rate : 21 b/s
Count of elements : 463
Stream size : 14.1 KiB (0%)
Title : Danish
Language : Danish
Default : No
Forced : No

Menu
00:00:00.000 : en:Chapter 01
00:20:56.000 : en:Chapter 02
00:38:47.000 : en:Chapter 03
00:54:54.000 : en:Chapter 04
01:13:03.000 : en:Chapter 05
Скриншоты
 

Вложения

  • 103,7 KB Просмотры: 0
    Личеров 0
    Сидеров 0
    Файлов 1
    Объем 10,3 GB

Привет!

Мы группа людей которые решили помочь другим в решении их проблем, а так же пользователям с поиском самых свежих и качественных инфопродуктов. За 4 с небольшим месяца мы создали этот форум на который заходят ежедневно тысячи человек и посещаемость постоянно растёт. Мы создали панель лицензирования для защиты PHP скриптов от воровства и SEO панель для мониторинга наших сайтов и выбора верной стратегии их развития. Мы надеемся что то что мы создали пригодится Вам и возможно Вы поможете нам развиваться и совершенствоваться вместе с Вами.

Статистика форума

Темы
406.699
Сообщения
465.164
Пользователи
84.820
Новый пользователь
MikhaiLaetus

Приложения форума для iOS и Android


У ркн там нет власти ;)
Приватные разговоры
Помощь Пользователи
    Вы не присоединились ни к одной комнате.