За последнюю неделю опубликовано 88 новых материалов.
Инструкция новичку Путеводитель по форуму Прокси для Telegram Показать подсказки , это бомба!

Скачать Отец поневоле (2013) HDTVRip от Шкипер бесплатно через торрент

  • Поучаствуй (в качестве покупателя) в любых пяти совместных покупках (кроме завершённых и "Моментальных") и получи группу "Новичок" навсегда -> ссылка на раздел
  • Получай до 480 рублей за каждого приглашенного пользователя!
    представляем Вам очередное расширение партнерской программы, подробности описаны тут -> ссылка
  • 90% материалов доступно к скачиванию после простой регистрации!
    Если же ты хочешь скачивать материалы без требования оставлять отзывы то получи группу "Новичок", 10 способов повышения описаны тут -> ссылка
  • К сожалению количество битых ссылок растет и мы уже не можем их оперативно восстанавливать поэтому просим помощи у каждого нашего пользователя.
    С сегодняшнего дня, за каждую восстановленную ссылку мы заплатим Вам.
    Подробнее тут -> ссылка
  • Перенесем твои заслуги с другого ресурса!
    Мы понимаем как сложно прокачивать аккаунты на форумах, вроде раскачал аккаунт, а тут появляется ресурс в 100 раз круче но тоже с системой прокачки и снова качать аккаунт...
    Предлагаем вам перенести Ваши заслуги на другом подобном ресурсе к нам.
    Подробности описаны тут -> ссылка
  • Вы можете получать по 2.5% с каждой покупки и продажи на маркете! Подробности в теме Партнёрская программа
Если Вы не хотите скачивать, Вы всегда можетепосмотретьонлайн, просто нажмите кнопку ниже :

Открыть плеер

Torrent_Bot

Торрент-Бот
Бот форума
4 Окт 2016
85
173
20
Информация о фильме
Название: Отец поневоле
Год выхода: 2013
Жанр: Мелодрама
Режиссер: Фуад Шабанов
В ролях: Игорь Ботвин, Анна Попова, Виктория Стивина, Ольга Кирсанова, Валерий Афанасьев, Алла Вербицкая, Яна Сухова

О фильме:
В России десять миллионов детей растут без отца. Кто-то – долгие годы таит обиду, а кто-то – больше всего на свете мечтает о встрече. По-разному ведут себя и матери брошенных детей. Одни пытаются добиться признания отцовства через суд. Другие, наоборот, стараются вычеркнуть из жизни отца своего ребенка. Большинство самих мужчин - не торопится признавать свое отцовство. Но и есть и такие, которые признают свои ошибки. И своих детей.


Страна: Россия
Студия: Вайт Медиа
Продолжительность: 01:29:55
Перевод: Не требуется

Файл
Кодек: XviD
Качество: HDTVRip
Видео: 624x336 (1.86:1), 25 fps, XviD build 73 ~1020 kbps avg, 0.19 bit/pixel
Звук: 48 kHz, MPEG Layer 3, 2 ch, ~128.00 kbps avg
Субтитры: Отсутствует

Семпл


MI
General
Complete name : D:ТоррентМОИ РИПЫОтец по неволеОтец_по_неволе.2013.HDTVRip.от Шкипер.avi
Format : AVI
Format/Info : Audio Video Interleave
File size : 745 MiB
Duration : 1h 29mn
Overall bit rate : 1 159 Kbps
Writing application : VirtualDubMod 1.5.10.3 | www.virtualdub-fr.org || (build 2550/release)
Writing library : VirtualDubMod build 2550/release

Video
ID : 0
Format : MPEG-4 Visual
Format profile : Advanced [email protected]
Format settings, BVOP : Yes
Format settings, QPel : No
Format settings, GMC : No warppoints
Format settings, Matrix : Default (MPEG)
Codec ID : XVID
Codec ID/Hint : XviD
Duration : 1h 29mn
Bit rate : 1 021 Kbps
Width : 624 pixels
Height : 336 pixels
Display aspect ratio : 1.857
Frame rate : 25.000 fps
Color space : YUV
Chroma subsampling : 4:2:0
Bit depth : 8 bits
Scan type : Progressive
Compression mode : Lossy
Bits/(Pixel*Frame) : 0.195
Stream size : 657 MiB (88%)
Writing library : XviD 73

Audio
ID : 1
Format : MPEG Audio
Format version : Version 1
Format profile : Layer 3
Mode : Joint stereo
Codec ID : 55
Codec ID/Hint : MP3
Duration : 1h 29mn
Bit rate mode : Constant
Bit rate : 128 Kbps
Channel(s) : 2 channels
Sampling rate : 48.0 KHz
Compression mode : Lossy
Stream size : 82.3 MiB (11%)
Alignment : Aligned on interleaves
Interleave, duration : 40 ms (1.00 video frame)
Interleave, preload duration : 504 ms
Writing library : LAME3.99r
Encoding settings : -m j -V 4 -q 2 -lowpass 17 -b 128
Скриншоты
Автор Рипа:
 

Вложения

  • 15,5 KB Просмотры: 1
    Личеров 0
    Сидеров 0
    Файлов 1
    Объем 745,3 MB

Привет!

Мы группа людей которые решили помочь другим в решении их проблем, а так же пользователям с поиском самых свежих и качественных инфопродуктов. За 4 с небольшим месяца мы создали этот форум на который заходят ежедневно тысячи человек и посещаемость постоянно растёт. Мы создали панель лицензирования для защиты PHP скриптов от воровства и SEO панель для мониторинга наших сайтов и выбора верной стратегии их развития. Мы надеемся что то что мы создали пригодится Вам и возможно Вы поможете нам развиваться и совершенствоваться вместе с Вами.

Статистика форума

Темы
411.650
Сообщения
470.294
Пользователи
90.457
Новый пользователь
АлександрСургутХМАО

Приложения форума для iOS и Android


У ркн там нет власти ;)
Приватные разговоры
Помощь Пользователи
    Вы не присоединились ни к одной комнате.