За последнюю неделю опубликовано 88 новых материалов.
Инструкция новичку Путеводитель по форуму Прокси для Telegram Показать подсказки , это бомба!

Скачать Отец невесты 2 / Father of the Bride Part II (1995) BDRip-HEVC 1080p | P, A бесплатно через торрент

  • Поучаствуй (в качестве покупателя) в любых пяти совместных покупках (кроме завершённых и "Моментальных") и получи группу "Новичок" навсегда -> ссылка на раздел
  • Получай до 480 рублей за каждого приглашенного пользователя!
    представляем Вам очередное расширение партнерской программы, подробности описаны тут -> ссылка
  • 90% материалов доступно к скачиванию после простой регистрации!
    Если же ты хочешь скачивать материалы без требования оставлять отзывы то получи группу "Новичок", 10 способов повышения описаны тут -> ссылка
  • К сожалению количество битых ссылок растет и мы уже не можем их оперативно восстанавливать поэтому просим помощи у каждого нашего пользователя.
    С сегодняшнего дня, за каждую восстановленную ссылку мы заплатим Вам.
    Подробнее тут -> ссылка
  • Перенесем твои заслуги с другого ресурса!
    Мы понимаем как сложно прокачивать аккаунты на форумах, вроде раскачал аккаунт, а тут появляется ресурс в 100 раз круче но тоже с системой прокачки и снова качать аккаунт...
    Предлагаем вам перенести Ваши заслуги на другом подобном ресурсе к нам.
    Подробности описаны тут -> ссылка
  • Вы можете получать по 2.5% с каждой покупки и продажи на маркете! Подробности в теме Партнёрская программа
Если Вы не хотите скачивать, Вы всегда можетепосмотретьонлайн, просто нажмите кнопку ниже :

Открыть плеер

Torrent_Bot

Торрент-Бот
Бот форума
4 Окт 2016
102
153
20



Название: Отец невесты 2
Оригинальное название: Father of the Bride Part II
Год выхода: 1995
Жанр: мелодрама, комедия, семейный
Режиссер: Чарльз Шайер
В ролях: Стив Мартин, Дайан Китон, Мартин Шорт, Кимберли Уильямс-Пэйсли, Джордж Ньюберн, Киран Калкин, Б.Д. Вонг, Питер Майкл Гец, Кейт Макгрегор-Стюарт, Джейн Адамс

О фильме: Он еще слишком молод, чтобы стать дедушкой, но уже достаточно стар, чтобы заводить третьего ребенка. И именно в тот момент, когда муж и отец скорбит об ушедшей молодости, его жена и дочь, как будто сговорившись, вдруг объявляют, что они беременны! В довершении всего, к ним приезжает экстравагантный устроитель торжеств, который переворачивает их дом вверх дном… и это в то время, когда семья в тишине и покое ждет пополнения.



Страна: США
Студия: Sandollar Productions
Продолжительность: 01:46:05
Перевод: профессиональный многоголосый, авторский одноголосый

Качество: BDRip-HEVC 1080p
Кодек: HEVC (x265)
Видео: 1920x1040 (1.85:1), 11,0 Мбит/сек, HEVC (Main10@L.4.1@High) 10 бит
Звук:
Аудио1: AC3, 6 ch, 640 Kbps - русский Многоголосый (Видеосервис)
Аудио2: AC3, 2 ch, 192 Kbps - русский Многоголосый (НТВ+)
Аудио3: AC3, 2 ch, 192 Kbps - русский Многоголосый (1 канал)
Аудио4: AC3, 2 ch, 192 Kbps - русский Одноголосый (Павел Санаев)
Аудио5: AC3, 2 ch, 192 Kbps - русский Одноголосый (Неизвестный)
Аудио6: AC3, 6 ch, 640 Kbps - english Original
Субтитры: English full (SRT)
Навигация по главам: Есть

Лог (x265 info)
x265 [info]: frame I: 641, Avg QP:18.15 kb/s: 25954.91
x265 [info]: frame P: 28205, Avg QP:19.33 kb/s: 19703.95
x265 [info]: frame B: 123764, Avg QP:21.27 kb/s: 8975.09
x265 [info]: Weighted P-Frames: Y:5.2% UV:3.6%
x265 [info]: Weighted B-Frames: Y:4.6% UV:2.3%
x265 [info]: consecutive B-frames: 0.4% 1.5% 2.2% 26.6% 12.6% 50.8% 3.5% 1.4% 0.5% 0.1% 0.1% 0.2%
x265 [info]: encoded 152610 frames in 159565.15s (0.96 fps), 11029.29 kb/s, Avg QP:20.90
Mediainfo
Формат : Matroska
Версия формата : Version 4
Размер файла : 9,69 Гбайт
Продолжительность : 1 ч. 46 м.
Общий поток : 13,1 Мбит/сек
Название фильма : Отец.невесты.2.Father.of.the.Bride.Part.II.1995.BDRip-HEVC.1080p
Дата кодирования : UTC 2020-05-18 15:37:32
Программа кодирования : mkvmerge v46.0.0 ('No Deeper Escape') 64-bit
Библиотека кодирования : libebml v1.3.10 + libmatroska v1.5.2

Видео
Идентификатор : 1
Формат : HEVC
Формат/Информация : High Efficiency Video Coding
Профиль формата : Main 10@L4@Main
Идентификатор кодека : V_MPEGH/ISO/HEVC
Продолжительность : 1 ч. 46 м.
Битрейт : 11,0 Мбит/сек
Ширина : 1 920 пикселей
Высота : 1 040 пикселей
Соотношение сторон : 1,85:1
Режим частоты кадров : Постоянный
Частота кадров : 23,976 (24000/1001) кадра/сек
Цветовое пространство : YUV
Субдискретизация насыщенности : 4:2:0
Битовая глубина : 10 бит
Бит/(Пиксели*Кадры) : 0.230
Размер потока : 8,17 Гбайт (84%)
Заголовок : Father of the Bride Part II / / Rip by OldGamer
Библиотека кодирования : x265 3.3+2-gd9a7411cc:[Windows][MSVC 1925][64 bit] 10bit
Настройки программы : cpuid=1111039 / frame-threads=3 / numa-pools=8 / wpp / no-pmode / no-pme / no-psnr / no-ssim / log-level=2 / input-csp=1 / input-res=1920x1040 / interlace=0 / total-frames=152610 / level-idc=0 / high-tier=1 / uhd-bd=0 / ref=5 / no-allow-non-conformance / no-repeat-headers / annexb / no-aud / no-hrd / info / hash=0 / no-temporal-layers / open-gop / min-keyint=23 / keyint=240 / gop-lookahead=0 / bframes=11 / b-adapt=2 / b-pyramid / bframe-bias=0 / rc-lookahead=60 / lookahead-slices=0 / scenecut=40 / hist-scenecut=0 / radl=0 / no-splice / no-intra-refresh / ctu=64 / min-cu-size=8 / rect / amp / max-tu-size=32 / tu-inter-depth=4 / tu-intra-depth=4 / limit-tu=1 / rdoq-level=2 / dynamic-rd=0.00 / no-ssim-rd / signhide / no-tskip / nr-intra=0 / nr-inter=0 / no-constrained-intra / no-strong-intra-smoothing / max-merge=5 / limit-refs=3 / no-limit-modes / me=3 / subme=7 / merange=57 / temporal-mvp / no-frame-dup / no-hme / weightp / weightb / no-analyze-src-pics / deblock=-3:-3 / no-sao / no-sao-non-deblock / rd=6 / selective-sao=0 / no-early-skip / rskip / no-fast-intra / no-tskip-fast / no-cu-lossless / b-intra / no-splitrd-skip / rdpenalty=0 / psy-rd=2.00 / psy-rdoq=1.00 / no-rd-refine / no-lossless / cbqpoffs=0 / crqpoffs=0 / rc=crf / crf=19.2 / qcomp=0.60 / qpstep=4 / stats-write=0 / stats-read=0 / ipratio=1.40 / pbratio=1.30 / aq-mode=4 / aq-strength=1.00 / no-cutree / zone-count=1 / zones: / start-frame=146671 / end-frame=152591 / qp=36 / no-strict-cbr / qg-size=32 / no-rc-grain / qpmax=69 / qpmin=0 / no-const-vbv / sar=1 / overscan=0 / videoformat=5 / range=0 / colorprim=2 / transfer=2 / colormatrix=2 / chromaloc=0 / display-window=0 / cll=0,0 / min-luma=0 / max-luma=1023 / log2-max-poc-lsb=8 / vui-timing-info / vui-hrd-info / slices=1 / no-opt-qp-pps / no-opt-ref-list-length-pps / no-multi-pass-opt-rps / scenecut-bias=0.00 / hist-threshold=0.01 / no-opt-cu-delta-qp / no-aq-motion / no-hdr10 / no-hdr10-opt / no-dhdr10-opt / no-idr-recovery-sei / analysis-reuse-level=0 / analysis-save-reuse-level=0 / analysis-load-reuse-level=0 / scale-factor=0 / refine-intra=0 / refine-inter=0 / refine-mv=1 / refine-ctu-distortion=0 / no-limit-sao / ctu-info=0 / no-lowpass-dct / refine-analysis-type=0 / copy-pic=1 / max-ausize-factor=1.0 / no-dynamic-refine / no-single-sei / no-hevc-aq / no-svt / no-field / qp-adaptation-range=1.00 / no-scenecut-aware-qpconformance-window-offsets / right=0 / bottom=0
Язык : English
Default : Да
Forced : Нет

Аудио #1
Идентификатор : 2
Формат : AC-3
Формат/Информация : Audio Coding 3
Коммерческое название : Dolby Digital
Идентификатор кодека : A_AC3
Продолжительность : 1 ч. 46 м.
Вид битрейта : Постоянный
Битрейт : 640 Кбит/сек
Каналы : 6 каналов
Channel layout : L R C LFE Ls Rs
Частота : 48,0 КГц
Частота кадров : 31,250 кадров/сек (1536 SPF)
Метод сжатия : С потерями
Размер потока : 486 Мбайт (5%)
Заголовок : Многоголосый закадровый (Видеосервис)
Язык : Russian
Service kind : Complete Main
Default : Да
Forced : Нет

Аудио #2
Идентификатор : 3
Формат : AC-3
Формат/Информация : Audio Coding 3
Коммерческое название : Dolby Digital
Идентификатор кодека : A_AC3
Продолжительность : 1 ч. 46 м.
Вид битрейта : Постоянный
Битрейт : 192 Кбит/сек
Каналы : 2 канала
Channel layout : L R
Частота : 48,0 КГц
Частота кадров : 31,250 кадров/сек (1536 SPF)
Метод сжатия : С потерями
Размер потока : 146 Мбайт (1%)
Заголовок : Многоголосый закадровый (НТВ+)
Язык : Russian
Service kind : Complete Main
Default : Нет
Forced : Нет

Аудио #3
Идентификатор : 4
Формат : AC-3
Формат/Информация : Audio Coding 3
Коммерческое название : Dolby Digital
Идентификатор кодека : A_AC3
Продолжительность : 1 ч. 46 м.
Вид битрейта : Постоянный
Битрейт : 192 Кбит/сек
Каналы : 2 канала
Channel layout : L R
Частота : 48,0 КГц
Частота кадров : 31,250 кадров/сек (1536 SPF)
Метод сжатия : С потерями
Размер потока : 146 Мбайт (1%)
Заголовок : Многоголосый закадровый (1 канал)
Язык : Russian
Service kind : Complete Main
Default : Нет
Forced : Нет

Аудио #4
Идентификатор : 5
Формат : AC-3
Формат/Информация : Audio Coding 3
Коммерческое название : Dolby Digital
Идентификатор кодека : A_AC3
Продолжительность : 1 ч. 46 м.
Вид битрейта : Постоянный
Битрейт : 192 Кбит/сек
Каналы : 2 канала
Channel layout : L R
Частота : 48,0 КГц
Частота кадров : 31,250 кадров/сек (1536 SPF)
Метод сжатия : С потерями
Размер потока : 146 Мбайт (1%)
Заголовок : Одноголосый закадровый (Павел Санаев)
Язык : Russian
Service kind : Complete Main
Default : Нет
Forced : Нет

Аудио #5
Идентификатор : 6
Формат : AC-3
Формат/Информация : Audio Coding 3
Коммерческое название : Dolby Digital
Идентификатор кодека : A_AC3
Продолжительность : 1 ч. 46 м.
Вид битрейта : Постоянный
Битрейт : 192 Кбит/сек
Каналы : 2 канала
Channel layout : L R
Частота : 48,0 КГц
Частота кадров : 31,250 кадров/сек (1536 SPF)
Метод сжатия : С потерями
Размер потока : 146 Мбайт (1%)
Заголовок : Одноголосый закадровый (Неизвестный)
Язык : Russian
Service kind : Complete Main
Default : Нет
Forced : Нет

Аудио #6
Идентификатор : 7
Формат : AC-3
Формат/Информация : Audio Coding 3
Коммерческое название : Dolby Digital
Идентификатор кодека : A_AC3
Продолжительность : 1 ч. 46 м.
Вид битрейта : Постоянный
Битрейт : 640 Кбит/сек
Каналы : 6 каналов
Channel layout : L R C LFE Ls Rs
Частота : 48,0 КГц
Частота кадров : 31,250 кадров/сек (1536 SPF)
Метод сжатия : С потерями
Размер потока : 486 Мбайт (5%)
Язык : English
Service kind : Complete Main
Default : Нет
Forced : Нет

Текст #1
Идентификатор : 8
Формат : UTF-8
Идентификатор кодека : S_TEXT/UTF8
Идентификатор кодека/Информация : UTF-8 Plain Text
Продолжительность : 1 ч. 42 м.
Битрейт : 91 бит/сек
Count of elements : 1852
Размер потока : 69,0 Кбайт (0%)
Заголовок : v1
Язык : English
Default : Нет
Forced : Нет

Текст #2
Идентификатор : 9
Формат : UTF-8
Идентификатор кодека : S_TEXT/UTF8
Идентификатор кодека/Информация : UTF-8 Plain Text
Продолжительность : 1 ч. 42 м.
Битрейт : 91 бит/сек
Count of elements : 1510
Размер потока : 68,7 Кбайт (0%)
Заголовок : v2
Язык : English
Default : Нет
Forced : Нет

Меню
00:00:00.000 : en:Chapter 01
00:05:26.284 : en:Chapter 02
00:13:09.163 : en:Chapter 03
00:22:52.371 : en:Chapter 04
00:32:40.750 : en:Chapter 05
00:37:12.104 : en:Chapter 06
00:43:59.303 : en:Chapter 07
00:48:55.641 : en:Chapter 08
00:50:13.802 : en:Chapter 09
00:55:44.591 : en:Chapter 10
00:57:27.360 : en:Chapter 11
01:03:41.734 : en:Chapter 12
01:09:51.729 : en:Chapter 13
01:13:31.407 : en:Chapter 14
01:17:37.402 : en:Chapter 15
01:19:35.520 : en:Chapter 16
01:27:56.479 : en:Chapter 17
01:32:45.560 : en:Chapter 18
01:36:20.316 : en:Chapter 19
01:41:24.828 : en:Chapter 20
Скриншоты


Релиз от: OldGamer
 

Вложения

  • 49,4 KB Просмотры: 0
    Личеров 0
    Сидеров 0
    Файлов 1
    Объем 9,7 GB

Привет!

Мы группа людей которые решили помочь другим в решении их проблем, а так же пользователям с поиском самых свежих и качественных инфопродуктов. За 4 с небольшим месяца мы создали этот форум на который заходят ежедневно тысячи человек и посещаемость постоянно растёт. Мы создали панель лицензирования для защиты PHP скриптов от воровства и SEO панель для мониторинга наших сайтов и выбора верной стратегии их развития. Мы надеемся что то что мы создали пригодится Вам и возможно Вы поможете нам развиваться и совершенствоваться вместе с Вами.

Статистика форума

Темы
405.442
Сообщения
462.404
Пользователи
80.449
Новый пользователь
okop

Приложения форума для iOS и Android


У ркн там нет власти ;)
Приватные разговоры
Помощь Пользователи
    Вы не присоединились ни к одной комнате.