За последнюю неделю опубликовано 49 новых материалов.
Инструкция новичку Путеводитель по форуму Прокси для Telegram Показать подсказки , это бомба!

Скачать Отец и сын (1979) SATRip от New-Team бесплатно через торрент

  • Поучаствуй (в качестве покупателя) в любых пяти совместных покупках (кроме завершённых и "Моментальных") и получи группу "Новичок" навсегда -> ссылка на раздел
  • Получай до 480 рублей за каждого приглашенного пользователя!
    представляем Вам очередное расширение партнерской программы, подробности описаны тут -> ссылка
  • 90% материалов доступно к скачиванию после простой регистрации!
    Если же ты хочешь скачивать материалы без требования оставлять отзывы то получи группу "Новичок", 10 способов повышения описаны тут -> ссылка
  • К сожалению количество битых ссылок растет и мы уже не можем их оперативно восстанавливать поэтому просим помощи у каждого нашего пользователя.
    С сегодняшнего дня, за каждую восстановленную ссылку мы заплатим Вам.
    Подробнее тут -> ссылка
  • Перенесем твои заслуги с другого ресурса!
    Мы понимаем как сложно прокачивать аккаунты на форумах, вроде раскачал аккаунт, а тут появляется ресурс в 100 раз круче но тоже с системой прокачки и снова качать аккаунт...
    Предлагаем вам перенести Ваши заслуги на другом подобном ресурсе к нам.
    Подробности описаны тут -> ссылка
  • Вы можете получать по 2.5% с каждой покупки и продажи на маркете! Подробности в теме Партнёрская программа
Если Вы не хотите скачивать, Вы всегда можетепосмотретьонлайн, просто нажмите кнопку ниже :

Открыть плеер

Torrent_Bot

Торрент-Бот
Бот форума
4 Окт 2016
90
166
20
Страна: СССР
Производство: Мосфильм

Жанр: драма
Год выпуска: 1957
Продолжительность: (01:27:17 + 01:19:20) 02:46:37

Перевод: Не требуется
Cубтитры: нет
Оригинальная аудиодорожка: русский

Режиссер: Владимир Краснопольский, Валерий Усков

В ролях:
Вадим Спиридонов, Алексей Серебряков, Надежда Бутырцева, Виктор Мамаев, Валерий Куксин, Алексей Ванин, Борис Новиков, Людмила Хитяева, Павел Кормунин, Ирина Нечаева, Андрей Смоляков, Сергей Мартынов, Марина Дюжева, Валерий Гатаев, Николай Бриллинг, Сергей Полежаев, Василий Корзун, Иван Лапиков, Леонид Харитонов, Михаил Бочаров, Буда Вампилов, Виктор Михайлов (VI), Татьяна Ким, Геннадий Корольков, Юрий Медведев, Дмитрий Орловский, Сергей Харченко, Анна Тогоноева, Женя Милованова, Елена Краснопольская, Василий Лещёв, Наталия Потапова, Александр Зимин, Юрий Чернов...
Об актёрах подробней

Описание:
Драма по одноименному роману Георгия Маркова.
Кинодилогия воспроизводит историю становления Советской власти в Сибири. Фильм первый - "Опрокинутая тишина" - об организации Васюгинской коммуны, ожесточенной борьбе первых сельских коммунаров. Второй фильм - "Эхо далеких выстрелов" - о разоблачении контрреволюционеров, погубивших коммуну и убивших её председателя.





Источник: DVB
Качество видео: SATRip
Формат видео: AVI

Видео: 688x272 (2,529:1), 25 fps, XviD ~ 1052 kbps avg, 0.225 bit/pixel
Аудио: 48 kHz, Dolby Digital AC3 2.0, 192 kbps

Раздача от:
MediaInfo
Общее
Полное имя : Otec.i.syn.1979.SATRip_[New-team]_by_AVP_StudioСерия 01.avi
Формат : AVI
Формат/Информация : Audio Video Interleave
Размер файла : 783 Мбайт
Продолжительность : 1 ч. 27 м.
Общий поток : 1253 Кбит/сек
Программа кодирования : VirtualDubMod 1.5.10.3 | www.virtualdub-fr.org || (build 2550/release)
Библиотека кодирования : VirtualDubMod build 2550/release

Видео
Идентификатор : 0
Формат : MPEG-4 Visual
Профиль формата : Advanced [email protected]
Параметр BVOP формата : 1
Параметр QPel формата : Нет
Параметр GMC формата : Без точки перехода
Параметр матрицы формата : Выборочная
Идентификатор кодека : XVID
Идентификатор кодека/Подсказка : XviD
Продолжительность : 1 ч. 27 м.
Битрейт : 1052 Кбит/сек
Ширина : 688 пикселей
Высота : 272 пикселя
Соотношение сторон : 2,529
Частота кадров : 25,000 кадров/сек
Цветовое пространство : YUV
Субдискретизация насыщенности : 4:2:0
Битовая глубина : 8 бит
Тип развёртки : Прогрессивная
Метод сжатия : С потерями
Бит/(Пиксели*Кадры) : 0.225
Размер потока : 657 Мбайт (84%)
Библиотека кодирования : XviD 73

Аудио
Идентификатор : 1
Формат : AC-3
Формат/Информация : Audio Coding 3
Расширение режима : CM (complete main)
Параметр Endianness формата : Big
Идентификатор кодека : 2000
Продолжительность : 1 ч. 27 м.
Вид битрейта : Постоянный
Битрейт : 192 Кбит/сек
Каналы : 2 канала
Расположение каналов : Front: L R
Частота : 48,0 КГц
Частота кадров : 31,250 кадров/сек (1536 spf)
Битовая глубина : 16 бит
Метод сжатия : С потерями
Размер потока : 120 Мбайт (15%)
Выравнивание : Разделение по промежуткам
Продолжительность промежутка : 40 мс. (1,00 видеокадр)
Время предзагрузки промежутка : 500 мс
Скриншоты
 

Вложения

  • 59,9 KB Просмотры: 1
    Личеров 0
    Сидеров 0
    Файлов 2
    Объем 1,5 GB

Привет!

Мы группа людей которые решили помочь другим в решении их проблем, а так же пользователям с поиском самых свежих и качественных инфопродуктов. За 4 с небольшим месяца мы создали этот форум на который заходят ежедневно тысячи человек и посещаемость постоянно растёт. Мы создали панель лицензирования для защиты PHP скриптов от воровства и SEO панель для мониторинга наших сайтов и выбора верной стратегии их развития. Мы надеемся что то что мы создали пригодится Вам и возможно Вы поможете нам развиваться и совершенствоваться вместе с Вами.

Статистика форума

Темы
410.888
Сообщения
469.442
Пользователи
87.903
Новый пользователь
xzonder

Приложения форума для iOS и Android


У ркн там нет власти ;)
Приватные разговоры
Помощь Пользователи
    Вы не присоединились ни к одной комнате.