За последнюю неделю опубликовано 82 новых материалов.
Инструкция новичку Путеводитель по форуму Прокси для Telegram Показать подсказки , это бомба!

Скачать Отдел криминальных расследований / Keishichou Tokumu Bu Tokushu Kyouakuhan Taisaku Shitsu Dai [1-10 из 12] (2019) WEBRip | Persona99 бесплатно через торрент

  • Поучаствуй (в качестве покупателя) в любых пяти совместных покупках (кроме завершённых и "Моментальных") и получи группу "Новичок" навсегда -> ссылка на раздел
  • Получай до 480 рублей за каждого приглашенного пользователя!
    представляем Вам очередное расширение партнерской программы, подробности описаны тут -> ссылка
  • 90% материалов доступно к скачиванию после простой регистрации!
    Если же ты хочешь скачивать материалы без требования оставлять отзывы то получи группу "Новичок", 10 способов повышения описаны тут -> ссылка
  • К сожалению количество битых ссылок растет и мы уже не можем их оперативно восстанавливать поэтому просим помощи у каждого нашего пользователя.
    С сегодняшнего дня, за каждую восстановленную ссылку мы заплатим Вам.
    Подробнее тут -> ссылка
  • Перенесем твои заслуги с другого ресурса!
    Мы понимаем как сложно прокачивать аккаунты на форумах, вроде раскачал аккаунт, а тут появляется ресурс в 100 раз круче но тоже с системой прокачки и снова качать аккаунт...
    Предлагаем вам перенести Ваши заслуги на другом подобном ресурсе к нам.
    Подробности описаны тут -> ссылка
  • Вы можете получать по 2.5% с каждой покупки и продажи на маркете! Подробности в теме Партнёрская программа

Torrent_Bot

Торрент-Бот
Бот форума
4 Окт 2016
104
152
20



Информация о фильме
Название: Специальный отдел криминальных расследований: Токунана
Оригинальное название: Keishichou Tokumu Bu Tokushu Kyouakuhan Taisaku Shitsu Dai Nana Ka: Tokunana / Special 7: Special Crime Investigation Unit
Год выхода: 2019
Жанр: Приключения
Режиссер: Курияма Такаюки
В ролях: Укажите актеров, через запятую

О фильме:
По некоторым древним источникам считалось, что драконы управляют миром. Именно они держат контроль над гномами, эльфами, гомункулами, вампирами и, как ни странно, людьми. Но по каким-то неизвестным причинам драконы неожиданно исчезают. Оставшаяся группа драконов вынуждена бороться за выживание и постепенно видоизменяются под людей. И они действительно становятся все больше схожими на другой вид. В Токио уже в современном обществе имеется группировка, решившая отыскать драконью силу. Называется группировка Девятка. Их деяния все чаще нарушают закон, что требует вмешательства правоохранителей.

Полиция в борьбе с Девяткой вынуждена сформировать рабочую группу, которая будет заниматься поимкой исключительно охотников на драконью силу. В рядах отдела криминальных расследований Токунан служат особые сотрудники. У каждого из них имеются способности, необходимые для розыска членов Девятки. Но не только профессионалы попали в отдел, а и новичок Сэйджи Нанацуки. Коллеги парня не сдерживают себя в отпускании колкостей в его адрес. А Сэйджи верит в то, что именно он сможет подсобить отделу в деле Девятки. Обстоятельства службы становятся невыносимыми.

Страна: Япония
Продолжительность: ТВ (12 эп.), 00:24:00
Перевод: Любительский одноголосый (Persona99)

Файл
Формат видео: AVI
Качество: WEBRip
Видео: XviD, 720x400, 23.976 fps, 1412 Kbps, 8 bits
Звук:
Аудио 1: AC-3, 48 KHz, 192 Kbps, 2 channels Язык Русский (в составе контейнера) ; Озвучка: Любительский одноголосый (Persona99)
Аудио 2: AC-3, 48 KHz, 192 Kbps, 2 channels Язык Японский ; Озвучка 2: оригинал
Субтитры: внешние srt, ass. Перевод: YakuSub Studi: Nika_Elrik

Подробные тех. данные
General
Complete name : Keishichou Tokumu Bu Tokushu Kyouakuhan Taisaku Shitsu Dai Nana Ka Tokunana�1_Keishichou Tokumu Bu Tokushu [Persona99.GSG].rus.jpn.avi
Format : AVI
Format/Info : Audio Video Interleave
File size : 309 MiB
Duration : 23mn 48s
Overall bit rate : 1 816 Kbps
Writing application : VirtualDubMod 1.5.10.2 (build 2540/release)
Writing library : VirtualDubMod build 2540/release

Video
ID : 0
Format : MPEG-4 Visual
Format profile : Advanced Simple@L5
Format settings, BVOP : 2
Format settings, QPel : No
Format settings, GMC : No warppoints
Format settings, Matrix : Default (H.263)
Codec ID : XVID
Codec ID/Hint : XviD
Duration : 23mn 48s
Bit rate : 1 418 Kbps
Width : 720 pixels
Height : 400 pixels
Display aspect ratio : 16:9
Frame rate : 23.976 fps
Color space : YUV
Chroma subsampling : 4:2:0
Bit depth : 8 bits
Scan type : Progressive
Compression mode : Lossy
Bits/(Pixel*Frame) : 0.205
Stream size : 241 MiB (78%)
Writing library : XviD 67

Audio #1
ID : 1
Format : AC-3
Format/Info : Audio Coding 3
Mode extension : CM (complete main)
Format settings, Endianness : Big
Codec ID : 2000
Duration : 23mn 48s
Bit rate mode : Constant
Bit rate : 192 Kbps
Channel(s) : 2 channels
Channel positions : Front: L R
Sampling rate : 48.0 KHz
Compression mode : Lossy
Stream size : 32.7 MiB (11%)
Alignment : Split accross interleaves
Interleave, duration : 42 ms (1.00 video frame)
Interleave, preload duration : 500 ms

Audio #2
ID : 2
Format : AC-3
Format/Info : Audio Coding 3
Mode extension : CM (complete main)
Format settings, Endianness : Big
Codec ID : 2000
Duration : 23mn 48s
Bit rate mode : Constant
Bit rate : 192 Kbps
Channel(s) : 2 channels
Channel positions : Front: L R
Sampling rate : 48.0 KHz
Compression mode : Lossy
Stream size : 32.7 MiB (11%)
Alignment : Split accross interleaves
Interleave, duration : 42 ms (1.00 video frame)
Interleave, preload duration : 500 ms
Список эпизодов
01. One Brings Bad Omens, Seven Brings Good Luck
02. The Two Investigate
03. The Threefold Trap
04. Family of Four
05. The Fifth Seal
06. The Six-Minute Battle to the Death
07. The Seventh Day Is for Idleness
08. The Eight-Foot Escape Route
09. Nine Years` Rage
10.
Скриншоты
 

Вложения

  • 19,1 KB Просмотры: 0
    Личеров 0
    Сидеров 0
    Файлов 30
    Объем 3 GB

Привет!

Мы группа людей которые решили помочь другим в решении их проблем, а так же пользователям с поиском самых свежих и качественных инфопродуктов. За 4 с небольшим месяца мы создали этот форум на который заходят ежедневно тысячи человек и посещаемость постоянно растёт. Мы создали панель лицензирования для защиты PHP скриптов от воровства и SEO панель для мониторинга наших сайтов и выбора верной стратегии их развития. Мы надеемся что то что мы создали пригодится Вам и возможно Вы поможете нам развиваться и совершенствоваться вместе с Вами.

Статистика форума

Темы
404.531
Сообщения
461.403
Пользователи
80.030
Новый пользователь
sham945

Приложения форума для iOS и Android


У ркн там нет власти ;)
Приватные разговоры
Помощь Пользователи
    Вы не присоединились ни к одной комнате.