За последнюю неделю опубликовано 28 новых материалов.
Инструкция новичку Путеводитель по форуму Прокси для Telegram Показать подсказки , это бомба!

Скачать Отчаянные меры / Desperate Measures (1998) WEB-DLRip | P бесплатно через торрент

  • Поучаствуй (в качестве покупателя) в любых пяти совместных покупках (кроме завершённых и "Моментальных") и получи группу "Новичок" навсегда -> ссылка на раздел
  • Получай до 480 рублей за каждого приглашенного пользователя!
    представляем Вам очередное расширение партнерской программы, подробности описаны тут -> ссылка
  • 90% материалов доступно к скачиванию после простой регистрации!
    Если же ты хочешь скачивать материалы без требования оставлять отзывы то получи группу "Новичок", 10 способов повышения описаны тут -> ссылка
  • К сожалению количество битых ссылок растет и мы уже не можем их оперативно восстанавливать поэтому просим помощи у каждого нашего пользователя.
    С сегодняшнего дня, за каждую восстановленную ссылку мы заплатим Вам.
    Подробнее тут -> ссылка
  • Перенесем твои заслуги с другого ресурса!
    Мы понимаем как сложно прокачивать аккаунты на форумах, вроде раскачал аккаунт, а тут появляется ресурс в 100 раз круче но тоже с системой прокачки и снова качать аккаунт...
    Предлагаем вам перенести Ваши заслуги на другом подобном ресурсе к нам.
    Подробности описаны тут -> ссылка
  • Вы можете получать по 2.5% с каждой покупки и продажи на маркете! Подробности в теме Партнёрская программа
Если Вы не хотите скачивать, Вы всегда можетепосмотретьонлайн, просто нажмите кнопку ниже :

Открыть плеер

Torrent_Bot

Торрент-Бот
Бот форума
4 Окт 2016
93
160
20



Информация о фильме
Название: Отчаянные меры
Оригинальное название: Desperate Measures
Год выхода: 1998
Жанр: Боевик, драма, триллер
Режиссер: Барбет Шредер
В ролях: Майкл Китон, Энди Гарсиа, Брайан Кокс, Нил Матараццо, Марша Гей Харден, Эрик Кинг, Эфрен Фижюра, Джозеф Кросс, Ричард Рили, Джанель Молони, Трейси Уолтер, Стивен Шаб

О фильме:
Два человека с диаметрально противоположными устремлениями вступают в непримиримую борьбу. Полицейскому Фрэнку Коннору необходимо найти донора для пересадки костного мозга своему смертельно больному сыну. Компьютер данных, к которому он пробрался нелегально, выдает ему фамилию Питера МакКэйба, жестокого убийцы, приговоренного к казни. Когда «смертник» дает согласие на пересадку и уже лежит на операционном столе, происходит невероятное - он убегает, взорвав жидким кислородом чуть ли не всю больницу. То, что осталось, превращается в настоящее поле боя, а Фрэнк должен любой ценой взять маньяка живым... Если Фрэнк до конца исполнит свой долг, преступник погибнет, и тогда несчастный ребенок обречен. Он может спасти жизнь сыну только сохранив жизнь убийце, и в этой кровавой драме у него нет союзников: и преступник, и полиция против него. В конечном счете, и Коннор и МакКэйб преследуют одну и ту же цель - выживание, только, если первый спасает чужую жизнь, то второй - свою. Решить эту моральную проблему можно исключительно с помощью оружия: так из психологической драмы вырастает великолепный боевик. Гордиев узел должен быть разрублен мечом. Чтобы спасся один, должны погибнуть многие…



Страна: США
Студия: Eaglepoint, Mandalay Entertainment
Продолжительность: 01:40:52
Перевод: Профессиональный (многоголосый закадровый)
Субтитры: Нет

Файл
Формат: AVI
Качество: WEB-DLRip
Видео: 720x400 at 23.976 fps, XviD, ~1670 kbps
Аудио: AC3, 6 ch, ~384 kbps - | Русский | - ОРТ

***Релиз от:-=DoMiNo=-

M/I
General
Complete name : Отчаянные меры.(1998).WEB-DLRip.F.S.[-=DoMiNo=-].avi
Format : AVI
Format/Info : Audio Video Interleave
Format profile : OpenDML
File size : 1.46 GiB
Duration : 1 h 40 min
Overall bit rate : 2 066 kb/s

Video
ID : 0
Format : MPEG-4 Visual
Format profile : Advanced [email protected]
Format settings : BVOP2 / Custom Matrix
Format settings, BVOP : 2
Format settings, QPel : No
Format settings, GMC : No warppoints
Format settings, Matrix : Custom
Codec ID : XVID
Codec ID/Hint : XviD
Duration : 1 h 40 min
Bit rate : 1 670 kb/s
Width : 720 pixels
Height : 400 pixels
Display aspect ratio : 16:9
Frame rate : 23.976 (24000/1001) FPS
Color space : YUV
Chroma subsampling : 4:2:0
Bit depth : 8 bits
Scan type : Progressive
Compression mode : Lossy
Bits/(Pixel*Frame) : 0.242
Stream size : 1.18 GiB (81%)
Writing library : XviD 67

Audio
ID : 1
Format : AC-3
Format/Info : Audio Coding 3
Commercial name : Dolby Digital
Codec ID : 2000
Duration : 1 h 40 min
Bit rate mode : Constant
Bit rate : 384 kb/s
Channel(s) : 6 channels
Channel layout : L R C LFE Ls Rs
Sampling rate : 48.0 kHz
Frame rate : 31.250 FPS (1536 SPF)
Bit depth : 16 bits
Compression mode : Lossy
Stream size : 277 MiB (19%)
Alignment : Aligned on interleaves
Interleave, duration : 32 ms (0.77 video frame)
Service kind : Complete Main
Скриншоты
 

Вложения

  • 15,7 KB Просмотры: 1
    Личеров 0
    Сидеров 0
    Файлов 1
    Объем 1,5 GB

Привет!

Мы группа людей которые решили помочь другим в решении их проблем, а так же пользователям с поиском самых свежих и качественных инфопродуктов. За 4 с небольшим месяца мы создали этот форум на который заходят ежедневно тысячи человек и посещаемость постоянно растёт. Мы создали панель лицензирования для защиты PHP скриптов от воровства и SEO панель для мониторинга наших сайтов и выбора верной стратегии их развития. Мы надеемся что то что мы создали пригодится Вам и возможно Вы поможете нам развиваться и совершенствоваться вместе с Вами.

Статистика форума

Темы
406.612
Сообщения
465.070
Пользователи
84.476
Новый пользователь
ААндрей

Приложения форума для iOS и Android


У ркн там нет власти ;)
Приватные разговоры
Помощь Пользователи
    Вы не присоединились ни к одной комнате.