За последнюю неделю опубликовано 62 новых материалов.
Инструкция новичку Путеводитель по форуму Прокси для Telegram Показать подсказки , это бомба!

Скачать От заката до рассвета / From Dusk Till Dawn (1996) BDRip 1080p | Кубик в Кубе бесплатно через торрент

  • Поучаствуй (в качестве покупателя) в любых пяти совместных покупках (кроме завершённых и "Моментальных") и получи группу "Новичок" навсегда -> ссылка на раздел
  • Получай до 480 рублей за каждого приглашенного пользователя!
    представляем Вам очередное расширение партнерской программы, подробности описаны тут -> ссылка
  • 90% материалов доступно к скачиванию после простой регистрации!
    Если же ты хочешь скачивать материалы без требования оставлять отзывы то получи группу "Новичок", 10 способов повышения описаны тут -> ссылка
  • К сожалению количество битых ссылок растет и мы уже не можем их оперативно восстанавливать поэтому просим помощи у каждого нашего пользователя.
    С сегодняшнего дня, за каждую восстановленную ссылку мы заплатим Вам.
    Подробнее тут -> ссылка
  • Перенесем твои заслуги с другого ресурса!
    Мы понимаем как сложно прокачивать аккаунты на форумах, вроде раскачал аккаунт, а тут появляется ресурс в 100 раз круче но тоже с системой прокачки и снова качать аккаунт...
    Предлагаем вам перенести Ваши заслуги на другом подобном ресурсе к нам.
    Подробности описаны тут -> ссылка
  • Вы можете получать по 2.5% с каждой покупки и продажи на маркете! Подробности в теме Партнёрская программа
Если Вы не хотите скачивать, Вы всегда можетепосмотретьонлайн, просто нажмите кнопку ниже :

Открыть плеер

Torrent_Bot

Торрент-Бот
Бот форума
4 Окт 2016
92
160
20



Информация о фильме
Название: От заката до рассвета
Оригинальное название: From Dusk Till Dawn
Год выхода: 1996
Жанр: ужасы, боевик, фэнтези, триллер, комедия, криминал
Режиссер: Роберт Родригес
В ролях: Джордж Клуни, Квентин Тарантино, Харви Кейтель, Джульетт Льюис, Эрнест Лю, Сальма Хайек, Чич Марин, Дэнни Трехо, Том Савини, Фред Уильямсон

О фильме: Самый известный и популярный персонаж «молодого Голливуда» Квентин Тарантино в этой ленте не только автор сценария, но и актер. Уже благодаря этому картина обречена на успех. В не меньшей степени ее потрясающей популярности содействуют и Кайтел - «крестный отец» Тарантино в кино, «прирожденная убийца» Джульетт Льюис и самая эротичная актриса Латинской Америки Сэлма Хайек. Спасаясь от полиции после ограбления банка, два брата - грабителя берут в заложники священника и его детей. Около мексиканской границыони решают провести ночь в придорожном баре. Вы видели фильм «Дракула»? Тогда название бара - «От заката до рассвета» - скажет Вам многое...



Страна: США, Мексика
Студия: A Band Apart, Dimension Films, Los Hooligans Productions, Miramax Films
Продолжительность: 01:47:59
Перевод: Профессиональный (двухголосый, закадровый) Кубик в Кубе

Файл
Качество: BDRip 1080p | likko
Формат: Matroska
Видео: 1920x1080 at 23.976 fps, x264, ~12500 kbps avg
Аудио#1: Russian: 48 kHz, AC3, 3/2 (L,C,R,l,r) + LFE ch, ~448 kbps avg |Двухголосый закадровый, Кубик в Кубе|
Аудио#2: English: 48 kHz, AC3, 3/2 (L,C,R,l,r) + LFE ch, ~448 kbps avg
Субтитры: Russian (Full), English (Full)

***Сохранены оригинальные главы как на Blu-ray
***Внимание! Присутствует ненормативная лексика!

MediaInfo
General
Unique ID : 184756686929739889965168726834831320135 (0x8AFED7F4C0A234449C103D3ECEC66447)
Complete name : From.Dusk.Till.Dawn.1996.BDRip.1080p.mkv
Format : Matroska
Format version : Version 2
File size : 10.1 GiB
Duration : 1 h 47 min
Overall bit rate : 13.4 Mb/s
Movie name : От заката до рассвета / From Dusk Till Dawn (1996)
Encoded date : UTC 2020-08-20 16:45:15
Writing application : mkvmerge v5.8.0 ('No Sleep / Pillow') built on Sep 2 2012 15:37:04
Writing library : libebml v1.2.3 + libmatroska v1.3.0

Video
ID : 1
Format : AVC
Format/Info : Advanced Video Codec
Format profile : [email protected]
Format settings : CABAC / 4 Ref Frames
Format settings, CABAC : Yes
Format settings, Reference fra : 4 frames
Codec ID : V_MPEG4/ISO/AVC
Duration : 1 h 47 min
Bit rate : 12.5 Mb/s
Width : 1 920 pixels
Height : 1 080 pixels
Display aspect ratio : 16:9
Frame rate mode : Constant
Frame rate : 23.976 FPS
Color space : YUV
Chroma subsampling : 4:2:0
Bit depth : 8 bits
Scan type : Progressive
Bits/(Pixel*Frame) : 0.251
Stream size : 9.22 GiB (91%)
Writing library : x264 core 125 r2208 d9d2288
Encoding settings : cabac=1 / ref=5 / deblock=1:-1:-1 / analyse=0x3:0x133 / me=umh / subme=11 / psy=1 / psy_rd=1.25:0.30 / mixed_ref=1 / me_range=32 / chroma_me=1 / trellis=2 / 8x8dct=1 / cqm=0 / deadzone=21,11 / fast_pskip=0 / chroma_qp_offset=-4 / threads=12 / lookahead_threads=2 / sliced_threads=0 / nr=0 / decimate=1 / interlaced=0 / bluray_compat=0 / constrained_intra=0 / bframes=12 / b_pyramid=1 / b_adapt=2 / b_bias=0 / direct=3 / weightb=1 / open_gop=0 / weightp=2 / keyint=250 / keyint_min=23 / scenecut=40 / intra_refresh=0 / rc_lookahead=50 / rc=2pass / mbtree=1 / bitrate=12500 / ratetol=1.0 / qcomp=0.60 / qpmin=0 / qpmax=69 / qpstep=4 / cplxblur=20.0 / qblur=0.5 / ip_ratio=1.40 / aq=1:1.00
Language : English
Default : Yes
Forced : No

Audio #1
ID : 2
Format : AC-3
Format/Info : Audio Coding 3
Commercial name : Dolby Digital
Codec ID : A_AC3
Duration : 1 h 47 min
Bit rate mode : Constant
Bit rate : 448 kb/s
Channel(s) : 6 channels
Channel layout : L R C LFE Ls Rs
Sampling rate : 48.0 kHz
Frame rate : 31.250 FPS (1536 SPF)
Bit depth : 16 bits
Compression mode : Lossy
Stream size : 346 MiB (3%)
Title : Кубик в Кубе
Language : Russian
Service kind : Complete Main
Default : Yes
Forced : No

Audio #2
ID : 3
Format : AC-3
Format/Info : Audio Coding 3
Commercial name : Dolby Digital
Codec ID : A_AC3
Duration : 1 h 47 min
Bit rate mode : Constant
Bit rate : 448 kb/s
Channel(s) : 6 channels
Channel layout : L R C LFE Ls Rs
Sampling rate : 48.0 kHz
Frame rate : 31.250 FPS (1536 SPF)
Bit depth : 16 bits
Compression mode : Lossy
Stream size : 346 MiB (3%)
Language : English
Service kind : Complete Main
Default : No
Forced : No

Text #1
ID : 4
Format : UTF-8
Codec ID : S_TEXT/UTF8
Codec ID/Info : UTF-8 Plain Text
Title : Full | R5
Language : Russian
Default : No
Forced : No

Text #2
ID : 5
Format : UTF-8
Codec ID : S_TEXT/UTF8
Codec ID/Info : UTF-8 Plain Text
Title : Full | Гоблин
Language : Russian
Default : No
Forced : No

Text #3
ID : 6
Format : UTF-8
Codec ID : S_TEXT/UTF8
Codec ID/Info : UTF-8 Plain Text
Title : Full
Language : English
Default : No
Forced : No

Menu
00:00:00.000 : :Chapter 01
00:09:33.823 : :Chapter 02
00:11:24.600 : :Chapter 03
00:17:08.944 : :Chapter 04
00:22:13.373 : :Chapter 05
00:25:01.082 : :Chapter 06
00:26:17.117 : :Chapter 07
00:31:10.535 : :Chapter 08
00:37:00.551 : :Chapter 09
00:41:48.839 : :Chapter 10
00:44:19.198 : :Chapter 11
00:50:30.944 : :Chapter 12
01:00:49.312 : :Chapter 13
01:09:01.971 : :Chapter 14
01:15:28.398 : :Chapter 15
01:24:10.336 : :Chapter 16
01:26:58.796 : :Chapter 17
01:29:53.930 : :Chapter 18
01:37:47.403 : :Chapter 19
01:41:50.020 : :Chapter 20
Скриншоты
 

Вложения

  • 26,2 KB Просмотры: 0
    Личеров 0
    Сидеров 0
    Файлов 1
    Объем 10,1 GB

Привет!

Мы группа людей которые решили помочь другим в решении их проблем, а так же пользователям с поиском самых свежих и качественных инфопродуктов. За 4 с небольшим месяца мы создали этот форум на который заходят ежедневно тысячи человек и посещаемость постоянно растёт. Мы создали панель лицензирования для защиты PHP скриптов от воровства и SEO панель для мониторинга наших сайтов и выбора верной стратегии их развития. Мы надеемся что то что мы создали пригодится Вам и возможно Вы поможете нам развиваться и совершенствоваться вместе с Вами.

Статистика форума

Темы
406.657
Сообщения
465.107
Пользователи
84.664
Новый пользователь
nastsiqq12

Приложения форума для iOS и Android


У ркн там нет власти ;)
Приватные разговоры
Помощь Пользователи
    Вы не присоединились ни к одной комнате.