За последнюю неделю опубликовано 57 новых материалов.
Инструкция новичку Путеводитель по форуму Прокси для Telegram Показать подсказки , это бомба!

Скачать Остров погибших кораблей (1987) DVDRip-AVC от ExKinoRay бесплатно через торрент

  • Поучаствуй (в качестве покупателя) в любых пяти совместных покупках (кроме завершённых и "Моментальных") и получи группу "Новичок" навсегда -> ссылка на раздел
  • Получай до 480 рублей за каждого приглашенного пользователя!
    представляем Вам очередное расширение партнерской программы, подробности описаны тут -> ссылка
  • 90% материалов доступно к скачиванию после простой регистрации!
    Если же ты хочешь скачивать материалы без требования оставлять отзывы то получи группу "Новичок", 10 способов повышения описаны тут -> ссылка
  • К сожалению количество битых ссылок растет и мы уже не можем их оперативно восстанавливать поэтому просим помощи у каждого нашего пользователя.
    С сегодняшнего дня, за каждую восстановленную ссылку мы заплатим Вам.
    Подробнее тут -> ссылка
  • Перенесем твои заслуги с другого ресурса!
    Мы понимаем как сложно прокачивать аккаунты на форумах, вроде раскачал аккаунт, а тут появляется ресурс в 100 раз круче но тоже с системой прокачки и снова качать аккаунт...
    Предлагаем вам перенести Ваши заслуги на другом подобном ресурсе к нам.
    Подробности описаны тут -> ссылка
  • Вы можете получать по 2.5% с каждой покупки и продажи на маркете! Подробности в теме Партнёрская программа
Если Вы не хотите скачивать, Вы всегда можетепосмотретьонлайн, просто нажмите кнопку ниже :

Открыть плеер

Torrent_Bot

Торрент-Бот
Бот форума
4 Окт 2016
92
160
20
Информация о фильме
Название: Остров погибших кораблей
Год выхода: 1983
Жанр: Музыкальный, комедия, экранизация
Режиссер: Евгений Гинзбург, Рауф Мамедов
В ролях: Лариса Белогурова, Гедиминас Сторпирштис, Николай Лавров, Константин Райкин, Наталья Лапина, Арунас Сторпирстис, Лилиан Малкина, Гали Абайдулов, Валентин Жиляев, Сергей Паршин

О фильме:
"В Саргассовы пучины, без видимой причины, внезапно погружается туда мореман, чтоб к жизни возродиться и тот час убедиться, что даже смерть, голубчики, и та обман...". Но для того, чтобы это понять, герою придется в один прекрасный момент расстаться с обычной жизнью, которую перестал ценить, с женщиной, которую перестал замечать, с просто привычкой быть, которая незаметно стала его главной составляющей... Почему для того, чтобы увидеть мир другими глазами, надо его лишиться?... А что же дальше?... "Земля Бермуд в зените, тоните же, тоните, волна проломит палубу, корму разнесет! От судна только остов, пожалуйте на остров, известно - кто утопленник, тому везет!" По мотивам одноименного романа Александра Беляева.

Страна: СССР
Продолжительность: 2 х ~ 01:05:00
Перевод: не требуется

Файл
Кодек: MKV
Качество: DVDRip-AVC
Видео: MPEG-4 AVC, 3725 Кбит/с, [email protected], [email protected]
Звук: AC3, 6 ch, 448 Кбит/с


Скриншоты








Медиа-Инфо
raw [info]: 712x572p 16:15 @ 25/1 fps (cfr)
x264 [info]: using SAR=16/15
x264 [info]: using cpu capabilities: MMX2 SSE2Fast SSSE3 SSE4.2 AVX
x264 [info]: profile High, level 4.1
x264 [info]: frame I:26 Avg QP:17.69 size: 72491
x264 [info]: frame P:600 Avg QP:20.28 size: 32338
x264 [info]: frame B:1920 Avg QP:22.87 size: 12013
===========================================================================================================
Общее
Уникальный идентификатор : 188921870825002029607076426695042098090 (0x8E2107608F99258E8BCE2803219363AA)
Полное имя : R:МОИ РИПЫОстров погибших кораблей_1987-DVDRip-AVCОстров-1.mkv
Формат : Matroska
Версия формата : Version 2
Размер файла : 1,84 Гбайт
Продолжительность : 1 ч. 3 м.
Общий поток : 4173 Кбит/сек
Дата кодирования : UTC 2015-06-10 10:17:06
Программа кодирования : mkvmerge v5.8.0 ('No Sleep / Pillow') built on Sep 2 2012 15:37:04
Библиотека кодирования : libebml v1.2.3 + libmatroska v1.3.0

Видео
Идентификатор : 1
Формат : AVC
Формат/Информация : Advanced Video Codec
Профиль формата : [email protected]
Параметр CABAC формата : Да
Параметр ReFrames формата : 16 кадров
Идентификатор кодека : V_MPEG4/ISO/AVC
Продолжительность : 1 ч. 3 м.
Битрейт : 3725 Кбит/сек
Ширина : 712 пикселей
Высота : 572 пикселя
Соотношение сторон : 4:3
Соотношение сторон в оригинале : 4:3
Режим частоты кадров : Постоянный
Частота кадров : 25,000 кадров/сек
Цветовое пространство : YUV
Субдискретизация насыщенности : 4:2:0
Битовая глубина : 8 бит
Тип развёртки : Прогрессивная
Бит/(Пиксели*Кадры) : 0.366
Размер потока : 1,61 Гбайт (87%)
Библиотека кодирования : x264 core 146 r2538 121396c
Настройки программы : cabac=1 / ref=16 / deblock=1:-2:-2 / analyse=0x3:0x133 / me=umh / subme=10 / psy=1 / psy_rd=1.03:0.05 / mixed_ref=1 / me_range=32 / chroma_me=1 / trellis=2 / 8x8dct=1 / cqm=0 / deadzone=21,11 / fast_pskip=0 / chroma_qp_offset=-3 / threads=12 / lookahead_threads=2 / sliced_threads=0 / nr=0 / decimate=0 / interlaced=0 / bluray_compat=0 / constrained_intra=0 / bframes=7 / b_pyramid=2 / b_adapt=2 / b_bias=0 / direct=3 / weightb=1 / open_gop=0 / weightp=2 / keyint=250 / keyint_min=25 / scenecut=40 / intra_refresh=0 / rc=2pass / mbtree=0 / bitrate=3725 / ratetol=1.0 / qcomp=0.65 / qpmin=0 / qpmax=39 / qpstep=4 / cplxblur=20.0 / qblur=0.5 / ip_ratio=1.40 / pb_ratio=1.30 / aq=1:1.00
Язык : English
Default : Да
Forced : Нет
Основные цвета : BT.601 PAL
Характеристики трансфера : BT.470 System B, BT.470 System G
Коэффициенты матрицы : BT.601

Аудио
Идентификатор : 2
Формат : AC-3
Формат/Информация : Audio Coding 3
Расширение режима : CM (complete main)
Параметр Endianness формата : Big
Идентификатор кодека : A_AC3
Продолжительность : 1 ч. 3 м.
Вид битрейта : Постоянный
Битрейт : 448 Кбит/сек
Каналы : 6 каналов
Расположение каналов : Front: L C R, Side: L R, LFE
Частота : 48,0 КГц
Битовая глубина : 16 бит
Метод сжатия : С потерями
Задержка видео : 82 мс.
Размер потока : 203 Мбайт (11%)
Язык : Russian
Default : Да
Forced : Нет
Релиз от:
Автор релиза:
На кинозал не перезаливать!
 

Вложения

  • 20,1 KB Просмотры: 1
    Личеров 0
    Сидеров 0
    Файлов 2
    Объем 3,8 GB

Привет!

Мы группа людей которые решили помочь другим в решении их проблем, а так же пользователям с поиском самых свежих и качественных инфопродуктов. За 4 с небольшим месяца мы создали этот форум на который заходят ежедневно тысячи человек и посещаемость постоянно растёт. Мы создали панель лицензирования для защиты PHP скриптов от воровства и SEO панель для мониторинга наших сайтов и выбора верной стратегии их развития. Мы надеемся что то что мы создали пригодится Вам и возможно Вы поможете нам развиваться и совершенствоваться вместе с Вами.

Статистика форума

Темы
406.651
Сообщения
465.099
Пользователи
84.651
Новый пользователь
Okca

Приложения форума для iOS и Android


У ркн там нет власти ;)
Приватные разговоры
Помощь Пользователи
    Вы не присоединились ни к одной комнате.