За последнюю неделю опубликовано 27 новых материалов.
Инструкция новичку Путеводитель по форуму Прокси для Telegram Показать подсказки , это бомба!

Скачать Ost+Front - Ave Maria (2012) DVD5 бесплатно через торрент

  • Поучаствуй (в качестве покупателя) в любых пяти совместных покупках (кроме завершённых и "Моментальных") и получи группу "Новичок" навсегда -> ссылка на раздел
  • Получай до 480 рублей за каждого приглашенного пользователя!
    представляем Вам очередное расширение партнерской программы, подробности описаны тут -> ссылка
  • 90% материалов доступно к скачиванию после простой регистрации!
    Если же ты хочешь скачивать материалы без требования оставлять отзывы то получи группу "Новичок", 10 способов повышения описаны тут -> ссылка
  • К сожалению количество битых ссылок растет и мы уже не можем их оперативно восстанавливать поэтому просим помощи у каждого нашего пользователя.
    С сегодняшнего дня, за каждую восстановленную ссылку мы заплатим Вам.
    Подробнее тут -> ссылка
  • Перенесем твои заслуги с другого ресурса!
    Мы понимаем как сложно прокачивать аккаунты на форумах, вроде раскачал аккаунт, а тут появляется ресурс в 100 раз круче но тоже с системой прокачки и снова качать аккаунт...
    Предлагаем вам перенести Ваши заслуги на другом подобном ресурсе к нам.
    Подробности описаны тут -> ссылка
  • Вы можете получать по 2.5% с каждой покупки и продажи на маркете! Подробности в теме Партнёрская программа

Torrent_Bot

Торрент-Бот
Бот форума
4 Окт 2016
96
155
20



Исполнитель: Ost+Front | Название: Ave Maria
Продолжительность: 18 м. 45 с
Жанр: Industrial-Metal
Страна: Germany
Год выхода: 2012
---------------------------------------------------------------------------------
О музыке:
Ost+Front был основан в 2008 году Патриком Ланге (Herrmann Ostfront), который до этого играл в Corvus Corax, Tanzwut и Schelmish, и Крисом Эль, играющий в Agonoize.
В 2011 году Ost+Front выступил на фестивале M'era Luna. Через две недели Крис покинул группу, его место занял Патрик Ланге под псевдонимом Hermann Ostfont, который ранее играл на гитаре. Это помешало своевременному выпуску дебютного альбома. 10 августа 2012 года вышел дебютный альбом «Ave Maria». Альбому предшествовал музыкальный клип «Ich liebe es»
28 августа альбом поднялся на 68 строчку немецких чартов.

Качество: DVD5 | Формат: DVD video
Аудио кодек: AC3 | Видео кодек: MPEG2
Видео: PAL | 7 287 kbps | 720x576 | 25 fps | 16:9 | Аудио: Dolby AC3 | 2 ch | 48 kHz | 192 kbps

BDInfo
Общее
Полное имя : T:Ost+Front-Ave.Maria.2012.DVD-5VIDEO_TSVTS_01_1.VOB
Формат : MPEG-PS
Размер файла : 1 024 Мбайт
Продолжительность : 18 м. 45 с.
Режим общего битрейта : Переменный
Общий поток : 7 631 Кбит/сек

Видео
Идентификатор : 224 (0xE0)
Формат : MPEG Video
Версия формата : Version 2
Профиль формата : Main@Main
Настройки формата : CustomMatrix / BVOP
Параметр BVOP формата : Да
Параметр матрицы формата : Выборочная
Параметр GOP формата : Variable
Продолжительность : 18 м. 45 с.
Вид битрейта : Переменный
Битрейт : 7 287 Кбит/сек
Максимальный битрейт : 9 586 Кбит/сек
Ширина : 720 пикселей
Высота : 576 пикселей
Соотношение сторон : 16:9
Частота кадров : 25,000 кадров/сек
Стандарт вещания : PAL
Цветовое пространство : YUV
Субдискретизация насыщенности : 4:2:0
Битовая глубина : 8 бит
Тип развёртки : Прогрессивная
Порядок развёртки : Верхнее поле первое
Метод сжатия : С потерями
Бит/(Пиксели*Кадры) : 0.703
Временной код первого кадра : 00:00:00:00
Оригинал временного кода : Group of pictures header
GOP, открыто/закрыто : Открыто
GOP, открыто/закрыто на первом кадре : Закрыто
Размер потока : 978 Мбайт (95%)

Аудио
Идентификатор : 189 (0xBD)-128 (0x80)
Формат : AC-3
Формат/Информация : Audio Coding 3
Коммерческое название : Dolby Digital
Режим смешивания : DVD-Video
Продолжительность : 18 м. 45 с.
Вид битрейта : Постоянный
Битрейт : 192 Кбит/сек
Каналы : 2 канала
Channel layout : L R
Частота : 48,0 КГц
Частота кадров : 31,250 кадров/сек (1536 SPF)
Метод сжатия : С потерями
Размер потока : 25,8 Мбайт (3%)
Service kind : Complete Main
Содержание
01. Ich Liebe Es (Zensiert), 02. Denkelied
03. Heimat Erde (Live), 04. 911 (Live)
05. Heimkind (Live)
Скриншоты
 

Вложения

  • 41,1 KB Просмотры: 0
    Личеров 0
    Сидеров 0
    Файлов 5
    Объем 1 GB

Привет!

Мы группа людей которые решили помочь другим в решении их проблем, а так же пользователям с поиском самых свежих и качественных инфопродуктов. За 4 с небольшим месяца мы создали этот форум на который заходят ежедневно тысячи человек и посещаемость постоянно растёт. Мы создали панель лицензирования для защиты PHP скриптов от воровства и SEO панель для мониторинга наших сайтов и выбора верной стратегии их развития. Мы надеемся что то что мы создали пригодится Вам и возможно Вы поможете нам развиваться и совершенствоваться вместе с Вами.

Статистика форума

Темы
406.520
Сообщения
464.549
Пользователи
82.855
Новый пользователь
carlos

Приложения форума для iOS и Android


У ркн там нет власти ;)
Приватные разговоры
Помощь Пользователи
    Вы не присоединились ни к одной комнате.