За последнюю неделю опубликовано 87 новых материалов.
Инструкция новичку Путеводитель по форуму Прокси для Telegram Показать подсказки , это бомба!

Скачать Особняк с привидениями / The Haunted Mansion (2003) WEB-DLRip 720p от SuperMin | D | Open Matte | Локализованная версия бесплатно через торрент

  • Поучаствуй (в качестве покупателя) в любых пяти совместных покупках (кроме завершённых и "Моментальных") и получи группу "Новичок" навсегда -> ссылка на раздел
  • Получай до 480 рублей за каждого приглашенного пользователя!
    представляем Вам очередное расширение партнерской программы, подробности описаны тут -> ссылка
  • 90% материалов доступно к скачиванию после простой регистрации!
    Если же ты хочешь скачивать материалы без требования оставлять отзывы то получи группу "Новичок", 10 способов повышения описаны тут -> ссылка
  • К сожалению количество битых ссылок растет и мы уже не можем их оперативно восстанавливать поэтому просим помощи у каждого нашего пользователя.
    С сегодняшнего дня, за каждую восстановленную ссылку мы заплатим Вам.
    Подробнее тут -> ссылка
  • Перенесем твои заслуги с другого ресурса!
    Мы понимаем как сложно прокачивать аккаунты на форумах, вроде раскачал аккаунт, а тут появляется ресурс в 100 раз круче но тоже с системой прокачки и снова качать аккаунт...
    Предлагаем вам перенести Ваши заслуги на другом подобном ресурсе к нам.
    Подробности описаны тут -> ссылка
  • Вы можете получать по 2.5% с каждой покупки и продажи на маркете! Подробности в теме Партнёрская программа
Если Вы не хотите скачивать, Вы всегда можетепосмотретьонлайн, просто нажмите кнопку ниже :

Открыть плеер

Torrent_Bot

Торрент-Бот
Бот форума
4 Окт 2016
102
152
20



Информация о фильме
Название: Особняк с привидениями
Оригинальное название: The Haunted Mansion
Год выхода: 2003
Жанр:ужасы, фэнтези, комедия
Режиссер: Роб Минкофф
В ролях: Эдди Мерфи, Теренс Стэмп, Натаниель Паркер, Марша Томасон, Дженнифер Тилли, Уоллес Шоун, Дина Спайби, Марк Джон Джеффрис, Эри Дэвис, Джим Дуган, Рэйчел Харрис, Steve Hytner, Heather Juergensen, Джереми Ховард, Дип Рой, Клэй Мартинез, Бриджет Энн Брно, Грегг Лондон, Зэк Минкофф, Шелби Грим, Гарри Дж. Кэмпбелл



Супруги Эверсы — два очень занятых риэлтора. Их принцип: работа прежде всего. Не исключение и годовщина собственной свадьбы. В этот день пара должна осмотреть старинное поместье, которое, как оказалось, уже занято компанией дружных и проказливых призраков. За дом начинается настоящая война между семьёй и 999 каверзными духами.




Страна: США
Студия: Walt Disney Pictures, Buena Vista Pictures, Gunn Films, Doom Buggy Productions
Продолжительность: 01:24:32
Перевод: Дубляж

Файл
Кодек: H.264
Качество: WEB-DLRip 720p
Видео: 1280x720 (16:9), 2915 kbps, 25.000 fps
Звук: Русский (AC-3, 6ch, 448 kbps)
Оригинал (AC-3, 6ch, 448 kbps)
Субтитры: русские, английские




MI
x264 [info]: frame I:1170 Avg QP:14.58 size: 82468
x264 [info]: frame P:35193 Avg QP:16.23 size: 28947
x264 [info]: frame B:90459 Avg QP:19.32 size: 8108
x264 [info]: consecutive B-frames: 5.3% 3.6% 18.5% 30.8% 23.9% 16.5% 0.7% 0.2% 0.5%

General
Unique ID : 147730320349782096900997773968402217396 (0x6F23D323D5E3C3B9B2646E5D564EF9B4)
Complete name : F:ФИЛЬМЫРУТОРОсобняк с привидениями (Open Matte) WEB-DLRip 720p.mkv
Format : Matroska
Format version : Version 4
File size : 2.25 GiB
Duration : 1 h 24 min
Overall bit rate : 3 811 kb/s
Movie name : Особняк с привидениями / The Haunted Mansion (2003) (Локализованная) (Open Matte) - #LORDKILL#
Encoded date : UTC 2020-05-21 10:49:09
Writing application : mkvmerge v32.0.0 ('Astral Progressions') 64-bit
Writing library : libebml v1.3.7 + libmatroska v1.5.0

Video
ID : 1
Format : AVC
Format/Info : Advanced Video Codec
Format profile : High@L4.1
Format settings : CABAC / 9 Ref Frames
Format settings, CABAC : Yes
Format settings, Reference : 9 frames
Codec ID : V_MPEG4/ISO/AVC
Duration : 1 h 24 min
Bit rate : 2 915 kb/s
Width : 1 280 pixels
Height : 720 pixels
Display aspect ratio : 16:9
Frame rate mode : Constant
Frame rate : 25.000 FPS
Color space : YUV
Chroma subsampling : 4:2:0
Bit depth : 8 bits
Scan type : Progressive
Bits/(Pixel*Frame) : 0.127
Stream size : 1.72 GiB (76%)
Writing library : x264 core 159 r2991 1771b55
Encoding settings : cabac=1 / ref=9 / deblock=1:-2:-2 / analyse=0x3:0x113 / me=umh / subme=10 / psy=1 / psy_rd=1.00:0.20 / mixed_ref=1 / me_range=32 / chroma_me=1 / trellis=2 / 8x8dct=1 / cqm=0 / deadzone=21,11 / fast_pskip=0 / chroma_qp_offset=-3 / threads=12 / lookahead_threads=2 / sliced_threads=0 / nr=0 / decimate=1 / interlaced=0 / bluray_compat=0 / constrained_intra=0 / bframes=8 / b_pyramid=2 / b_adapt=2 / b_bias=0 / direct=1 / weightb=1 / open_gop=0 / weightp=2 / keyint=240 / keyint_min=24 / scenecut=40 / intra_refresh=0 / rc=crf / mbtree=0 / crf=19.0 / qcomp=0.60 / qpmin=0 / qpmax=69 / qpstep=4 / ip_ratio=1.40 / pb_ratio=1.30 / aq=1:1.00
Default : Yes
Forced : No

Audio #1
ID : 2
Format : AC-3
Format/Info : Audio Coding 3
Commercial name : Dolby Digital
Codec ID : A_AC3
Duration : 1 h 24 min
Bit rate mode : Constant
Bit rate : 448 kb/s
Channel(s) : 6 channels
Channel layout : L R C LFE Ls Rs
Sampling rate : 48.0 kHz
Frame rate : 31.250 FPS (1536 SPF)
Compression mode : Lossy
Stream size : 270 MiB (12%)
Title : Дубляж
Language : Russian
Service kind : Complete Main
Default : Yes
Forced : No

Audio #2
ID : 3
Format : AC-3
Format/Info : Audio Coding 3
Commercial name : Dolby Digital
Codec ID : A_AC3
Duration : 1 h 24 min
Bit rate mode : Constant
Bit rate : 448 kb/s
Channel(s) : 6 channels
Channel layout : L R C LFE Ls Rs
Sampling rate : 48.0 kHz
Frame rate : 31.250 FPS (1536 SPF)
Compression mode : Lossy
Stream size : 270 MiB (12%)
Language : English
Service kind : Complete Main
Default : No
Forced : No

Text #1
ID : 4
Format : UTF-8
Codec ID : S_TEXT/UTF8
Codec ID/Info : UTF-8 Plain Text
Duration : 1 h 23 min
Bit rate : 91 b/s
Count of elements : 1023
Stream size : 56.0 KiB (0%)
Language : Russian
Default : No
Forced : No

Text #2
ID : 5
Format : UTF-8
Codec ID : S_TEXT/UTF8
Codec ID/Info : UTF-8 Plain Text
Duration : 1 h 23 min
Bit rate : 71 b/s
Count of elements : 1020
Stream size : 43.9 KiB (0%)
Language : English
Default : No
Forced : No
Скриншоты
Сравнение
 

Вложения

  • 12,4 KB Просмотры: 0
    Личеров 0
    Сидеров 0
    Файлов 1
    Объем 2,3 GB

Привет!

Мы группа людей которые решили помочь другим в решении их проблем, а так же пользователям с поиском самых свежих и качественных инфопродуктов. За 4 с небольшим месяца мы создали этот форум на который заходят ежедневно тысячи человек и посещаемость постоянно растёт. Мы создали панель лицензирования для защиты PHP скриптов от воровства и SEO панель для мониторинга наших сайтов и выбора верной стратегии их развития. Мы надеемся что то что мы создали пригодится Вам и возможно Вы поможете нам развиваться и совершенствоваться вместе с Вами.

Статистика форума

Темы
404.596
Сообщения
461.481
Пользователи
80.311
Новый пользователь
dzambala

Приложения форума для iOS и Android


У ркн там нет власти ;)
Приватные разговоры
Помощь Пользователи
    Вы не присоединились ни к одной комнате.