За последнюю неделю опубликовано 62 новых материалов.
Инструкция новичку Путеводитель по форуму Прокси для Telegram Показать подсказки , это бомба!

Скачать Основной инстинкт 2: Жажда риска / Basic Instinct 2 (2006) HDRip-AVC | D | Unrated | Open Matte бесплатно через торрент

  • Поучаствуй (в качестве покупателя) в любых пяти совместных покупках (кроме завершённых и "Моментальных") и получи группу "Новичок" навсегда -> ссылка на раздел
  • Получай до 480 рублей за каждого приглашенного пользователя!
    представляем Вам очередное расширение партнерской программы, подробности описаны тут -> ссылка
  • 90% материалов доступно к скачиванию после простой регистрации!
    Если же ты хочешь скачивать материалы без требования оставлять отзывы то получи группу "Новичок", 10 способов повышения описаны тут -> ссылка
  • К сожалению количество битых ссылок растет и мы уже не можем их оперативно восстанавливать поэтому просим помощи у каждого нашего пользователя.
    С сегодняшнего дня, за каждую восстановленную ссылку мы заплатим Вам.
    Подробнее тут -> ссылка
  • Перенесем твои заслуги с другого ресурса!
    Мы понимаем как сложно прокачивать аккаунты на форумах, вроде раскачал аккаунт, а тут появляется ресурс в 100 раз круче но тоже с системой прокачки и снова качать аккаунт...
    Предлагаем вам перенести Ваши заслуги на другом подобном ресурсе к нам.
    Подробности описаны тут -> ссылка
  • Вы можете получать по 2.5% с каждой покупки и продажи на маркете! Подробности в теме Партнёрская программа
Если Вы не хотите скачивать, Вы всегда можетепосмотретьонлайн, просто нажмите кнопку ниже :

Открыть плеер

Torrent_Bot

Торрент-Бот
Бот форума
4 Окт 2016
92
160
20



Информация о фильме
Название: Основной инстинкт 2: Жажда риска
Оригинальное название: Basic Instinct 2
Год выпуска: 2006
Жанр: Триллер, Криминал, Детектив
Режиссер: Майкл Кейтон-Джоунс / Michael Caton-Jones
В ролях: Шэрон Стоун, Дэвид Морисси, Шарлотта Рэмплинг, Дэвид Тьюлис, Хью Дэнси, Стэн Коллимор, Нил Мэскелл, Жан Чаппель, Теренс Харви, Эллен Томас, Марк Сэнгстер, Тим Беррингтон, Индира Варма, Хиткот Уильямс, Флора Монтгомери, Ката Добо, Айэйн Робертсон

Описание:
На писательницу Кэтрин Трэммел вновь падает подозрение в причастности к преступлению. Скотланд-Ярд отряжает обращается к доктору Майклу Глассу за помощью в профессиональном заключении о состоянии психического здоровья Кэтрин. Но Гласс, как когда-то детектив Каррен, попадает под чары роковой женщины.



Страна: Германия, USA, Великобритания, Испания
Продолжительность: 01:55:47
Перевод: Дублированный (Мосфильм-Мастер)
Cубтитры: Русские (форсированные, полные), английские

Файл
Формат: Matroska
Тип релиза: HDRip-AVC | Unrated | Open Matte
Видео: 1024x576 (16:9), 23.976 fps, AVC, ~2151 Kbps, 0.152 bits/pixel
Аудио: 48.0 KHz, AC3, 6 ch, 448 Kbps
Формат субтитров: softsub (SRT)

***Релиз от:-=DoMiNo=-



Интересные факты о фильме
- Режиссером картины мог стать Дэвид Кроненберг, однако продюсер Марио Кассар отстранил Дэвида от участия в проекте, так как режиссер хотел привести с собой большую часть своей съемочной бригады. После этого пост режиссера был предложен Джону МакТирнану.
- Проект получил зеленый свет еще несколько лет назад, но постоянно откладывался по тем или иным причинам. Сама Шарон также приложила к этому руку, забраковав ряд актеров, предлагавшихся на роль психоаналитика Гласа, включая любимчика Марио Кассара – Бенджамина Братта.
- Роберт Дауни мл. был отвергнут продюсерами после скандала, связанного с наркотическими пристрастиями актера. Курт Рассел отказался от участия в проекте, боясь обнажиться перед камерами. Пирс Броснан сослался на неприятные моменты в сценарии. Также списке претендентов на главную мужскую роль в фильме присутствовали Брюс Гринвуд, Харрисон Форд, Вигго Мортенсен, Бенисио Дель Торо, Аарон Экхарт и упомянутый ранее Бенджамин Братт.
- Шарон Стоун хотела заполучить в проект Катрин Денев. В итоге эта роль досталась Шарлотте Рэмплинг.
- Капризная Шарон заявила о своем выходе из проекта в тот момент, когда все было готово к началу съемок. Продюсеры принялись в срочном порядке искать замену – рассматривались кандидатуры Деми Мур и Эшли Джадд.
- Действие картины перенеслось из Нью-Йорка в Лондон.
- Работу над саундтреком должен был возглавить Джерри Голдсмит. К сожалению, незадолго до запуска проекта прославленный композитор скончался.
- Постановщик оригинальной картины Пол Верховен мог стать и режиссером сиквела, но предпочел поработать в родных краях – в Голландии.
- Фильм пребывал на стадии препродакшена еще в 2000 и 2001 годах. Все это время проект сопровождали две проблемы - отсутствие режиссера и исполнителя главной мужской роли. Измученная Стоун подала судебный иск на продюсеров картины (Эндрю Вайна и Марио Кассар) в размере 100 миллионов долларов за моральный ущерб и отсутствие новых предложений по работе ввиду «занятости» актрисы в «полумертвом» проекте. В 2004 году, к удивлению многих, Шарон отклонила свой иск и согласилась возобновить работу над картиной с теми же продюсерами.
M/I
x264 [info]: frame I:1218 Avg QP:15.60 size: 84070
x264 [info]: frame P:34684 Avg QP:17.14 size: 26702
x264 [info]: frame B:130658 Avg QP:20.13 size: 6421
x264 [info]: consecutive B-frames: 1.3% 1.6% 6.9% 19.9% 20.3% 43.1% 5.5% 0.5% 0.3% 0.2% 0.1% 0.1% 0.2%

General
Format : Matroska
Format version : Version 4
File size : 2.10 GiB
Duration : 1 h 55 min
Overall bit rate : 2 601 kb/s
Movie name : Основной инстинкт 2: Жажда риска / Basic Instinct 2 (2006) / Основной инстинкт 2.(2006).HDRip-AVC.Unrated.O.M.[-=DoMiNo=-]
Encoded date : UTC 2020-08-29 12:49:02
Writing application : mkvmerge v49.0.0 ('Sick Of Losing Soulmates') 64-bit
Writing library : libebml v1.4.0 + libmatroska v1.6.1
Cover : Yes
Attachments : Cover.jpg / Cover 2.jpg

Video
ID : 1
Format : AVC
Format/Info : Advanced Video Codec
Format profile : [email protected]
Format settings : CABAC / 14 Ref Frames
Format settings, CABAC : Yes
Format settings, Reference : 14 frames
Codec ID : V_MPEG4/ISO/AVC
Duration : 1 h 55 min
Bit rate : 2 151 kb/s
Width : 1 024 pixels
Height : 576 pixels
Display aspect ratio : 16:9
Frame rate mode : Constant
Frame rate : 23.976 (24000/1001) FPS
Color space : YUV
Chroma subsampling : 4:2:0
Bit depth : 8 bits
Scan type : Progressive
Bits/(Pixel*Frame) : 0.152
Stream size : 1.74 GiB (83%)
Title : -=DoMiNo=- | Open Matte
Writing library : x264 core 161 r3018 db0d417
Encoding settings : cabac=1 / ref=14 / deblock=1:-2:-2 / analyse=0x3:0x133 / me=umh / subme=10 / psy=1 / psy_rd=1.00:0.15 / mixed_ref=1 / me_range=32 / chroma_me=1 / trellis=2 / 8x8dct=1 / cqm=0 / deadzone=21,11 / fast_pskip=0 / chroma_qp_offset=-3 / threads=6 / lookahead_threads=1 / sliced_threads=0 / nr=0 / decimate=1 / interlaced=0 / bluray_compat=0 / constrained_intra=0 / bframes=12 / b_pyramid=2 / b_adapt=2 / b_bias=0 / direct=1 / weightb=1 / open_gop=0 / weightp=2 / keyint=250 / keyint_min=23 / scenecut=40 / intra_refresh=0 / rc_lookahead=60 / rc=crf / mbtree=0 / crf=18.5 / qcomp=0.60 / qpmin=0 / qpmax=69 / qpstep=4 / vbv_maxrate=50000 / vbv_bufsize=62500 / crf_max=0.0 / nal_hrd=none / filler=0 / ip_ratio=1.40 / pb_ratio=1.30 / aq=1:1.00
Language : English
Default : Yes
Forced : No
Color range : Limited
Color primaries : BT.709
Transfer characteristics : BT.709
Matrix coefficients : BT.709

Audio
ID : 2
Format : AC-3
Format/Info : Audio Coding 3
Commercial name : Dolby Digital
Codec ID : A_AC3
Duration : 1 h 55 min
Bit rate mode : Constant
Bit rate : 448 kb/s
Channel(s) : 6 channels
Channel layout : L R C LFE Ls Rs
Sampling rate : 48.0 kHz
Frame rate : 31.250 FPS (1536 SPF)
Compression mode : Lossy
Stream size : 371 MiB (17%)
Title : DUB_[Мосфильм-Мастер]
Language : Russian
Service kind : Complete Main
Default : Yes
Forced : No

Text #1
ID : 3
Format : UTF-8
Codec ID : S_TEXT/UTF8
Codec ID/Info : UTF-8 Plain Text
Duration : 30 min 24 s
Bit rate : 2 b/s
Count of elements : 8
Stream size : 492 Bytes (0%)
Title : forced
Language : Russian
Default : Yes
Forced : No

Text #2
ID : 4
Format : UTF-8
Codec ID : S_TEXT/UTF8
Codec ID/Info : UTF-8 Plain Text
Duration : 1 h 50 min
Bit rate : 79 b/s
Count of elements : 1002
Stream size : 64.7 KiB (0%)
Title : full
Language : Russian
Default : No
Forced : No

Text #3
ID : 5
Format : UTF-8
Codec ID : S_TEXT/UTF8
Codec ID/Info : UTF-8 Plain Text
Duration : 1 h 48 min
Bit rate : 50 b/s
Count of elements : 1185
Stream size : 40.4 KiB (0%)
Language : English
Default : No
Forced : No

Menu
00:00:00.000 : pl:Rozdział 01
00:05:05.763 : pl:Rozdział 02
00:11:35.069 : pl:Rozdział 03
00:21:31.039 : pl:Rozdział 04
00:29:00.905 : pl:Rozdział 05
00:40:19.834 : pl:Rozdział 06
00:44:36.048 : pl:Rozdział 07
00:54:47.409 : pl:Rozdział 08
01:04:33.703 : pl:Rozdział 09
01:13:33.242 : pl:Rozdział 10
01:24:49.459 : pl:Rozdział 11
01:36:14.435 : pl:Rozdział 12
01:55:45.688 : pl:Rozdział 13
Скриншоты

 

Вложения

  • 85,5 KB Просмотры: 0
    Личеров 0
    Сидеров 0
    Файлов 1
    Объем 2,1 GB

Привет!

Мы группа людей которые решили помочь другим в решении их проблем, а так же пользователям с поиском самых свежих и качественных инфопродуктов. За 4 с небольшим месяца мы создали этот форум на который заходят ежедневно тысячи человек и посещаемость постоянно растёт. Мы создали панель лицензирования для защиты PHP скриптов от воровства и SEO панель для мониторинга наших сайтов и выбора верной стратегии их развития. Мы надеемся что то что мы создали пригодится Вам и возможно Вы поможете нам развиваться и совершенствоваться вместе с Вами.

Статистика форума

Темы
406.657
Сообщения
465.114
Пользователи
84.666
Новый пользователь
inqueto

Приложения форума для iOS и Android


У ркн там нет власти ;)
Приватные разговоры
Помощь Пользователи
    Вы не присоединились ни к одной комнате.