За последнюю неделю опубликовано 34 новых материалов.
Инструкция новичку Путеводитель по форуму Прокси для Telegram Показать подсказки , это бомба!

Скачать Основано на реальных событиях / D'après une histoire vraie (2017) WEBRip 1080p | GreenРай Studio бесплатно через торрент

  • Поучаствуй (в качестве покупателя) в любых пяти совместных покупках (кроме завершённых и "Моментальных") и получи группу "Новичок" навсегда -> ссылка на раздел
  • Получай до 480 рублей за каждого приглашенного пользователя!
    представляем Вам очередное расширение партнерской программы, подробности описаны тут -> ссылка
  • 90% материалов доступно к скачиванию после простой регистрации!
    Если же ты хочешь скачивать материалы без требования оставлять отзывы то получи группу "Новичок", 10 способов повышения описаны тут -> ссылка
  • К сожалению количество битых ссылок растет и мы уже не можем их оперативно восстанавливать поэтому просим помощи у каждого нашего пользователя.
    С сегодняшнего дня, за каждую восстановленную ссылку мы заплатим Вам.
    Подробнее тут -> ссылка
  • Перенесем твои заслуги с другого ресурса!
    Мы понимаем как сложно прокачивать аккаунты на форумах, вроде раскачал аккаунт, а тут появляется ресурс в 100 раз круче но тоже с системой прокачки и снова качать аккаунт...
    Предлагаем вам перенести Ваши заслуги на другом подобном ресурсе к нам.
    Подробности описаны тут -> ссылка
  • Вы можете получать по 2.5% с каждой покупки и продажи на маркете! Подробности в теме Партнёрская программа
Если Вы не хотите скачивать, Вы всегда можетепосмотретьонлайн, просто нажмите кнопку ниже :

Открыть плеер

Torrent_Bot

Торрент-Бот
Бот форума
4 Окт 2016
93
160
20
Информация о фильме
Название: Основано на реальных событиях
Оригинальное название: D'après une histoire vraie
Год выпуска: 2017
Жанр:Триллер, драма, детектив
Страна: Франция, Польша, Бельгия, Belga Productions, Canal+ [fr], Ciné, France Télévisions
Режиссер: Роман Полански
В ролях: Эмманюэль Сенье, Ева Грин, Венсан Перес, Доминик Пинон, Камиль Шаму, Брижит Роюан, Жозе Дайан, Ноэми Львовски, Леонелло Брандолини, Элизабет Куин

О фильме: Молодую писательницу одолевает депрессия, пришедшая в её жизнь с первым громким профессиональным успехом. В это время происходит встреча с почитательницей её таланта, загадочной L. Девушки сближаются: писательница получает необходимую ей поддержку, а L тем временем всё глубже проникает в жизнь своего кумира.



Файл
Качество: WEBRip 1080p
Видео данные: MKV, 1920x800 (2.40:1), 23.976 fps, 4737 Кбит/с
Аудио данные: AAC, 2 ch, 192 Кбит/с
Перевод: Любительский многоголосый (GreenРай Studio)
Продолжительность: 01:36:58

Медиаинфо
General
Unique ID : 93280078640478129269722961423159294159 (0x462D16F468194ABCDCC11A27AE6C78CF)
Complete name : C:DownloadsD.après.une.histoire.vraie.2017.P.WEB-DL.1080p.mkv
Format : Matroska
Format version : Version 4 / Version 2
File size : 3.21 GiB
Duration : 1 h 36 min
Overall bit rate : 4 737 kb/s
Encoded date : UTC 2018-09-03 06:53:28
Writing application : mkvmerge v25.0.0 ('Prog Noir') 64-bit
Writing library : libebml v1.3.6 + libmatroska v1.4.9

Video
ID : 1
Format : AVC
Format/Info : Advanced Video Codec
Format profile : [email protected]
Format settings : CABAC / 1 Ref Frames
Format settings, CABAC : Yes
Format settings, RefFrames : 1 frame
Format settings, GOP : M=1, N=30
Codec ID : V_MPEG4/ISO/AVC
Duration : 1 h 36 min
Bit rate : 4 545 kb/s
Width : 1 920 pixels
Height : 800 pixels
Display aspect ratio : 2.40:1
Frame rate mode : Constant
Frame rate : 23.976 (24000/1001) FPS
Color space : YUV
Chroma subsampling : 4:2:0
Bit depth : 8 bits
Scan type : Progressive
Bits/(Pixel*Frame) : 0.123
Stream size : 3.08 GiB (96%)
Language : English
Default : Yes
Forced : No

Audio
ID : 2
Format : AAC
Format/Info : Advanced Audio Codec
Format profile : LC
Codec ID : A_AAC-2
Duration : 1 h 36 min
Bit rate : 192 kb/s
Channel(s) : 2 channels
Channel positions : Front: L R
Sampling rate : 48.0 kHz
Frame rate : 46.875 FPS (1024 SPF)
Compression mode : Lossy
Stream size : 131 MiB (4%)
Language : English
Default : Yes
Forced : No

Внимание, имеется видео и аудио реклама от спонсора показа

Скриншоты

Релиз от:
 

Вложения

  • 17 KB Просмотры: 1
    Личеров 0
    Сидеров 0
    Файлов 1
    Объем 3,2 GB

Привет!

Мы группа людей которые решили помочь другим в решении их проблем, а так же пользователям с поиском самых свежих и качественных инфопродуктов. За 4 с небольшим месяца мы создали этот форум на который заходят ежедневно тысячи человек и посещаемость постоянно растёт. Мы создали панель лицензирования для защиты PHP скриптов от воровства и SEO панель для мониторинга наших сайтов и выбора верной стратегии их развития. Мы надеемся что то что мы создали пригодится Вам и возможно Вы поможете нам развиваться и совершенствоваться вместе с Вами.

Статистика форума

Темы
406.599
Сообщения
464.995
Пользователи
84.341
Новый пользователь
Лана_1209

Приложения форума для iOS и Android


У ркн там нет власти ;)
Приватные разговоры
Помощь Пользователи
    Вы не присоединились ни к одной комнате.