За последнюю неделю опубликовано 48 новых материалов.
Инструкция новичку Путеводитель по форуму Прокси для Telegram Показать подсказки , это бомба!

Скачать Основано на реальных событиях / D'après une histoire vraie (2017) WEB-DL 1080p | Sub бесплатно через торрент

  • Поучаствуй (в качестве покупателя) в любых пяти совместных покупках (кроме завершённых и "Моментальных") и получи группу "Новичок" навсегда -> ссылка на раздел
  • Получай до 480 рублей за каждого приглашенного пользователя!
    представляем Вам очередное расширение партнерской программы, подробности описаны тут -> ссылка
  • 90% материалов доступно к скачиванию после простой регистрации!
    Если же ты хочешь скачивать материалы без требования оставлять отзывы то получи группу "Новичок", 10 способов повышения описаны тут -> ссылка
  • К сожалению количество битых ссылок растет и мы уже не можем их оперативно восстанавливать поэтому просим помощи у каждого нашего пользователя.
    С сегодняшнего дня, за каждую восстановленную ссылку мы заплатим Вам.
    Подробнее тут -> ссылка
  • Перенесем твои заслуги с другого ресурса!
    Мы понимаем как сложно прокачивать аккаунты на форумах, вроде раскачал аккаунт, а тут появляется ресурс в 100 раз круче но тоже с системой прокачки и снова качать аккаунт...
    Предлагаем вам перенести Ваши заслуги на другом подобном ресурсе к нам.
    Подробности описаны тут -> ссылка
  • Вы можете получать по 2.5% с каждой покупки и продажи на маркете! Подробности в теме Партнёрская программа
Если Вы не хотите скачивать, Вы всегда можетепосмотретьонлайн, просто нажмите кнопку ниже :

Открыть плеер

Torrent_Bot

Торрент-Бот
Бот форума
4 Окт 2016
90
166
20
Основано на реальных событиях / Based on a True Story / D'après une histoire vraie

Страна: Франция Польша Бельгия
Производство: Canal+ [fr], Ciné, Mars Films, Belga Productions, Cofinova 13, Polish Film Institute, R.P. Productions
Год выпуска: 2017
Жанр:триллер, драма, детектив
Продолжительность: 01:36:06

Режиссер: Роман Полански
Авторы сценария: Оливье Ассайас, Роман Полански, Дэльфин Де Виган

В ролях: Эмманюэль Сенье, Ева Грин, Венсан Перес, Доминик Пинон, Камиль Шаму, Брижит Роюан, Жозе Дайан, Ноэми Львовски, Элизабет Куин

Описание: Молодую писательницу одолевает депрессия, пришедшая в её жизнь с первым громким профессиональным успехом. В это время происходит встреча с почитательницей её таланта, загадочной L. Девушки сближаются: писательница получает необходимую ей поддержку, а L тем временем всё глубже проникает в жизнь своего кумира...



Перевод: отсутствует | субтитры | от indy91
Субтитры: русские, английские


Качество: WEB-DL 1080p
Формат: МКV
Видео кодек: AVC
Аудио кодек: АС3
Видео: 1912x796 (2.40:1), 25.000 fps, MPEG-4 AVC ~4 485 kbps avg
Аудио: 48.0 kHz, AC3 Dolby Digital, 3/2 (L,C,R,l,r) + LFE ch, ~384 kbps | FRE
Формат субтитров: UTF-8 Plain Text

Дата премьеры (мир): 27 мая 2017



Media Info
General
Unique ID : 180070333951078293511275812958058028452 (0x877848EA4E3932F0ABE77ED9A13B9DA4)
Complete name : D.apres.une.histoire.vraie.mkv
Format : Matroska
Format version : Version 4 / Version 2
File size : 3.33 GiB
Duration : 1h 36mn
Overall bit rate : 4 968 Kbps
Movie name : D.apres.une.histoire.vraie
Encoded date : UTC 2018-08-27 13:01:54
Writing application : mkvmerge v6.0.0 ('Coming Up For Air') built on Jan 20 2013 09:52:00
Writing library : libebml v1.3.0 + libmatroska v1.4.0

Video
ID : 1
Format : AVC
Format/Info : Advanced Video Codec
Format profile : [email protected]
Format settings, CABAC : Yes
Format settings, ReFrames : 5 frames
Codec ID : V_MPEG4/ISO/AVC
Duration : 1h 36mn
Bit rate : 4 485 Kbps
Width : 1 912 pixels
Height : 796 pixels
Display aspect ratio : 2.40:1
Frame rate mode : Constant
Frame rate : 25.000 fps
Color space : YUV
Chroma subsampling : 4:2:0
Bit depth : 8 bits
Scan type : Progressive
Bits/(Pixel*Frame) : 0.118
Stream size : 3.01 GiB (90%)
Language : French
Default : Yes
Forced : No
Color range : Limited
Color primaries : BT.709
Transfer characteristics : BT.709
Matrix coefficients : BT.709
Statistics Tags Issue : mkvmerge v17.0.0 ('Be Ur Friend') 64-bit 2018-03-09 20:33:06 / mkvmerge v6.0.0 ('Coming Up For Air') built on Jan 20 2013 09:52:00 2018-08-27 13:01:54
FromStats_BitRate : 4581896
FromStats_Duration : 01:36:06.360000000
FromStats_FrameCount : 144159
FromStats_StreamSize : 3302608418

Audio
ID : 2
Format : AC-3
Format/Info : Audio Coding 3
Mode extension : CM (complete main)
Format settings, Endianness : Big
Codec ID : A_AC3
Duration : 1h 36mn
Bit rate mode : Constant
Bit rate : 384 Kbps
Channel(s) : 6 channels
Channel positions : Front: L C R, Side: L R, LFE
Sampling rate : 48.0 KHz
Frame rate : 31.250 fps (1536 spf)
Compression mode : Lossy
Stream size : 264 MiB (8%)
Title : VF 5.1
Language : French
Default : Yes
Forced : No
Statistics Tags Issue : mkvmerge v17.0.0 ('Be Ur Friend') 64-bit 2018-03-09 20:33:06 / mkvmerge v6.0.0 ('Coming Up For Air') built on Jan 20 2013 09:52:00 2018-08-27 13:01:54
FromStats_BitRate : 384000
FromStats_Duration : 01:36:06.400000000
FromStats_FrameCount : 180200
FromStats_StreamSize : 276787200

Text #1
ID : 3
Format : UTF-8
Codec ID : S_TEXT/UTF8
Codec ID/Info : UTF-8 Plain Text
Title : русский
Language : Russian
Default : Yes
Forced : No

Text #2
ID : 4
Format : UTF-8
Codec ID : S_TEXT/UTF8
Codec ID/Info : UTF-8 Plain Text
Title : английский
Language : English
Default : No
Forced : No

Menu
00:00:00.000 : en:Chapitre 01
00:10:00.000 : en:Chapitre 02
00:20:00.000 : en:Chapitre 03
00:30:00.000 : en:Chapitre 04
00:40:00.000 : en:Chapitre 05
00:50:00.000 : en:Chapitre 06
01:00:00.000 : en:Chapitre 07
01:10:00.000 : en:Chapitre 08
01:20:00.000 : en:Chapitre 09
01:30:00.000 : en:Chapitre 10
Скриншоты
 

Вложения

  • 67,6 KB Просмотры: 1
    Личеров 0
    Сидеров 0
    Файлов 1
    Объем 3,3 GB

Привет!

Мы группа людей которые решили помочь другим в решении их проблем, а так же пользователям с поиском самых свежих и качественных инфопродуктов. За 4 с небольшим месяца мы создали этот форум на который заходят ежедневно тысячи человек и посещаемость постоянно растёт. Мы создали панель лицензирования для защиты PHP скриптов от воровства и SEO панель для мониторинга наших сайтов и выбора верной стратегии их развития. Мы надеемся что то что мы создали пригодится Вам и возможно Вы поможете нам развиваться и совершенствоваться вместе с Вами.

Статистика форума

Темы
410.885
Сообщения
469.441
Пользователи
87.872
Новый пользователь
sol9nka

Приложения форума для iOS и Android


У ркн там нет власти ;)
Приватные разговоры
Помощь Пользователи
    Вы не присоединились ни к одной комнате.