За последнюю неделю опубликовано 62 новых материалов.
Инструкция новичку Путеводитель по форуму Прокси для Telegram Показать подсказки , это бомба!

Скачать Осада / The Siege (1998) BDRip 1080p от KORSAR | D, P, P2, A бесплатно через торрент

  • Поучаствуй (в качестве покупателя) в любых пяти совместных покупках (кроме завершённых и "Моментальных") и получи группу "Новичок" навсегда -> ссылка на раздел
  • Получай до 480 рублей за каждого приглашенного пользователя!
    представляем Вам очередное расширение партнерской программы, подробности описаны тут -> ссылка
  • 90% материалов доступно к скачиванию после простой регистрации!
    Если же ты хочешь скачивать материалы без требования оставлять отзывы то получи группу "Новичок", 10 способов повышения описаны тут -> ссылка
  • К сожалению количество битых ссылок растет и мы уже не можем их оперативно восстанавливать поэтому просим помощи у каждого нашего пользователя.
    С сегодняшнего дня, за каждую восстановленную ссылку мы заплатим Вам.
    Подробнее тут -> ссылка
  • Перенесем твои заслуги с другого ресурса!
    Мы понимаем как сложно прокачивать аккаунты на форумах, вроде раскачал аккаунт, а тут появляется ресурс в 100 раз круче но тоже с системой прокачки и снова качать аккаунт...
    Предлагаем вам перенести Ваши заслуги на другом подобном ресурсе к нам.
    Подробности описаны тут -> ссылка
  • Вы можете получать по 2.5% с каждой покупки и продажи на маркете! Подробности в теме Партнёрская программа
Если Вы не хотите скачивать, Вы всегда можетепосмотретьонлайн, просто нажмите кнопку ниже :

Открыть плеер

Torrent_Bot

Торрент-Бот
Бот форума
4 Окт 2016
92
160
20





Информация о фильме
Название: Осада
Оригинальное название: The Siege
Год выхода: 1998
Жанр: Боевик, триллер, драма, криминал
Режиссер: Эдвард Цвик
В ролях: Дензел Вашингтон, Аннетт Бенинг, Брюс Уиллис, Тони Шэлоуб, Сами Буажила, Ахмед Бен Ларби, Мосле Мохамед, Лианна Пай, Марк Вэлли, Джек Гуолтни, Дэвид Провэл, Лэнс Реддик, Джереми Кнастер

О фильме: После похищения американскими военными мусульманского лидера Ахмеда Бен Талала, Нью-Йорк становится центром нарастающих террористических нападений. Энтони Хаббард, глава спецподразделения ФБР по борьбе с терроризмом, обращается к помощи агента ЦРУ Элис Крафт, специалиста по Ближнему Востоку. При еe содействии он надеется покончить с террористами. Но взрывы продолжают сотрясать город, гибнут сотни людей. Правительство США принимает решение послать армию на улицы Нью-Йорка. Вводится военное положение. Руководителем операции назначается генерал Уильям Деверо.


Релиз от:

Страна: США
Студия: 20th Century Fox Film Corporation, Bedford Falls Productions, Lynda Obst Productions
Продолжительность: 01:56:05
Перевод: Дублированный, профессиональный (двухголосый, многоголосый), авторский одноголосый

Файл
Качество: BDRip 1080p
Формат: MKV
Видео: MPEG-4 AVC, 1920x812, 23.976 кадр/с, 15,5 Мбит/сек
Аудио 1: Русский (АС3, 6 ch, 448 Кбит/с) Дублированный (Blu-Ray CEE)
Аудио 2: Русский (AC3, 2 ch, 192 Кбит/с) Профессиональный многоголосый («Первый канал»)
Аудио 3: Русский (AC3, 6 ch, 448 Кбит/с) Профессиональный двухголосый (Пётр Гланц и Инна Королёва)
Аудио 4: Русский (АС3, 6 ch, 448 Кбит/с) Авторский одноголосый (Юрий Живов)
Аудио 5: Русский (AC3, 2 ch, 192 Кбит/с) Авторский одноголосый (Николай Антонов)
Аудио 6: Украинский (AC3, 6 ch, 384 Кбит/с) Профессиональный двухголосый («1+1»)
Аудио 7: Английский (AC3, 6 ch, 448 Кбит/с) Оригинал
Субтитры: Русские, английские
Навигация по главам: Есть

Инфо файл
Сравнение с исходником с убитыми полутонами и засветами: https://www.screenshotcomparison.com/comparison/2167/picture:2

x264 [info]: frame I:1315 Avg QP:16.97 size:291761
x264 [info]: frame P:34280 Avg QP:19.13 size:147640
x264 [info]: frame B:131418 Avg QP:21.34 size: 61212
x264 [info]: consecutive B-frames: 1.8% 2.3% 5.2% 18.7% 16.3% 40.5% 6.6% 4.6% 1.8% 1.4% 0.7%
Общее
Уникальный идентификатор : 225631821984364110485288707956474820783 (0xA9BF1BB565620050ADE9FEAF0AB6B8AF)
Полное имя : D:Осада_1998-BDRip 1080p_KORSAR.mkv
Формат : Matroska
Версия формата : Version 2
Размер файла : 14,6 Гбайт
Продолжительность : 1 ч. 56 м.
Общий поток : 18,1 Мбит/сек
Название фильма : Осада_1998-BDRip 1080p_KORSAR
Дата кодирования : UTC 2020-05-02 06:08:37
Программа кодирования : mkvmerge v5.8.0 ('No Sleep / Pillow') built on Sep 2 2012 15:37:04
Библиотека кодирования : libebml v1.2.3 + libmatroska v1.3.0

Видео
Идентификатор : 1
Формат : AVC
Формат/Информация : Advanced Video Codec
Профиль формата : [email protected]
Настройки формата : CABAC / 5 Ref Frames
Параметр CABAC формата : Да
Параметр RefFrames формата : 5 кадров
Идентификатор кодека : V_MPEG4/ISO/AVC
Продолжительность : 1 ч. 56 м.
Битрейт : 15,5 Мбит/сек
Ширина : 1 920 пикселей
Высота : 812 пикселей
Соотношение сторон : 2,35:1
Режим частоты кадров : Постоянный
Частота кадров : 23,976 (24000/1001) кадра/сек
Цветовое пространство : YUV
Субдискретизация насыщенности : 4:2:0
Битовая глубина : 8 бит
Тип развёртки : Прогрессивная
Бит/(Пиксели*Кадры) : 0.415
Размер потока : 12,3 Гбайт (84%)
Библиотека кодирования : x264 core 152 r2851kMod ba24899
Настройки программы : cabac=1 / ref=5 / deblock=1:-3:-3 / analyse=0x3:0x113 / me=umh / subme=11 / psy=1 / fade_compensate=0.00 / psy_rd=1.05:0.10 / mixed_ref=1 / me_range=48 / chroma_me=1 / trellis=2 / 8x8dct=1 / cqm=0 / deadzone=21,11 / fast_pskip=0 / chroma_qp_offset=-3 / threads=2 / lookahead_threads=1 / sliced_threads=0 / nr=0 / decimate=0 / interlaced=0 / bluray_compat=0 / constrained_intra=0 / bframes=10 / b_pyramid=2 / b_adapt=2 / b_bias=0 / direct=3 / weightb=1 / open_gop=0 / weightp=2 / keyint=240 / keyint_min=23 / scenecut=40 / intra_refresh=0 / rc_lookahead=40 / rc=2pass / mbtree=0 / bitrate=15500 / ratetol=1.0 / qcomp=0.63 / qpmin=0 / qpmax=33 / qpstep=4 / cplxblur=20.0 / qblur=0.5 / vbv_maxrate=50000 / vbv_bufsize=62500 / nal_hrd=none / filler=0 / ip_ratio=1.25 / pb_ratio=1.30 / aq=2:0.70
Язык : English
Default : Да
Forced : Нет
Цветовой диапазон : Limited
Основные цвета : BT.709
Характеристики трансфера : BT.709
Коэффициенты матрицы : BT.709
Duration_Source : General_Duration

Аудио #1
Идентификатор : 2
Формат : AC-3
Формат/Информация : Audio Coding 3
Коммерческое название : Dolby Digital
Идентификатор кодека : A_AC3
Продолжительность : 1 ч. 56 м.
Вид битрейта : Постоянный
Битрейт : 448 Кбит/сек
Каналы : 6 каналов
Channel layout : L R C LFE Ls Rs
Частота : 48,0 КГц
Частота кадров : 31,250 кадров/сек (1536 SPF)
Метод сжатия : С потерями
Размер потока : 372 Мбайт (2%)
Заголовок : DUB, Blu-Ray CEE
Язык : Russian

Default : Да
Forced : Нет
Duration_Source : General_Duration

Аудио #2
Идентификатор : 3
Формат : AC-3
Формат/Информация : Audio Coding 3
Коммерческое название : Dolby Digital
Идентификатор кодека : A_AC3
Продолжительность : 1 ч. 56 м.
Вид битрейта : Постоянный
Битрейт : 192 Кбит/сек
Каналы : 2 канала
Channel layout : L R
Частота : 48,0 КГц
Частота кадров : 31,250 кадров/сек (1536 SPF)
Метод сжатия : С потерями
Размер потока : 159 Мбайт (1%)
Заголовок : MVO, Первый канал
Язык : Russian

Default : Нет
Forced : Нет
Duration_Source : General_Duration

Аудио #3
Идентификатор : 4
Формат : AC-3
Формат/Информация : Audio Coding 3
Коммерческое название : Dolby Digital
Идентификатор кодека : A_AC3
Продолжительность : 1 ч. 56 м.
Вид битрейта : Постоянный
Битрейт : 448 Кбит/сек
Каналы : 6 каналов
Channel layout : L R C LFE Ls Rs
Частота : 48,0 КГц
Частота кадров : 31,250 кадров/сек (1536 SPF)
Метод сжатия : С потерями
Размер потока : 372 Мбайт (2%)
Заголовок : DVO, Гланц и Королёва
Язык : Russian

Default : Нет
Forced : Нет
Duration_Source : General_Duration

Аудио #4
Идентификатор : 5
Формат : AC-3
Формат/Информация : Audio Coding 3
Коммерческое название : Dolby Digital
Идентификатор кодека : A_AC3
Продолжительность : 1 ч. 56 м.
Вид битрейта : Постоянный
Битрейт : 448 Кбит/сек
Каналы : 6 каналов
Channel layout : L R C LFE Ls Rs
Частота : 48,0 КГц
Частота кадров : 31,250 кадров/сек (1536 SPF)
Метод сжатия : С потерями
Размер потока : 372 Мбайт (2%)
Заголовок : AVO, Ю. Живов
Язык : Russian

Default : Нет
Forced : Нет
Duration_Source : General_Duration

Аудио #5
Идентификатор : 6
Формат : AC-3
Формат/Информация : Audio Coding 3
Коммерческое название : Dolby Digital
Идентификатор кодека : A_AC3
Продолжительность : 1 ч. 56 м.
Вид битрейта : Постоянный
Битрейт : 192 Кбит/сек
Каналы : 2 канала
Channel layout : L R
Частота : 48,0 КГц
Частота кадров : 31,250 кадров/сек (1536 SPF)
Метод сжатия : С потерями
Размер потока : 159 Мбайт (1%)
Заголовок : AVO, Н. Антонов
Язык : Russian

Default : Нет
Forced : Нет
Duration_Source : General_Duration

Аудио #6
Идентификатор : 7
Формат : AC-3
Формат/Информация : Audio Coding 3
Коммерческое название : Dolby Digital
Идентификатор кодека : A_AC3
Продолжительность : 1 ч. 56 м.
Вид битрейта : Постоянный
Битрейт : 384 Кбит/сек
Каналы : 6 каналов
Channel layout : L R C LFE Ls Rs
Частота : 48,0 КГц
Частота кадров : 31,250 кадров/сек (1536 SPF)
Метод сжатия : С потерями
Размер потока : 319 Мбайт (2%)
Заголовок : DVO, 1+1
Язык : Ukrainian

Default : Нет
Forced : Нет
Duration_Source : General_Duration

Аудио #7
Идентификатор : 8
Формат : AC-3
Формат/Информация : Audio Coding 3
Коммерческое название : Dolby Digital
Идентификатор кодека : A_AC3
Продолжительность : 1 ч. 56 м.
Вид битрейта : Постоянный
Битрейт : 448 Кбит/сек
Каналы : 6 каналов
Channel layout : L R C LFE Ls Rs
Частота : 48,0 КГц
Частота кадров : 31,250 кадров/сек (1536 SPF)
Метод сжатия : С потерями
Размер потока : 372 Мбайт (2%)
Заголовок : Original
Язык : English

Default : Нет
Forced : Нет
Duration_Source : General_Duration

Текст #1
Идентификатор : 9
Формат : UTF-8
Идентификатор кодека : S_TEXT/UTF8
Идентификатор кодека/Информация : UTF-8 Plain Text
Язык : Russian
Default : Нет
Forced : Нет

Текст #2
Идентификатор : 10
Формат : UTF-8
Идентификатор кодека : S_TEXT/UTF8
Идентификатор кодека/Информация : UTF-8 Plain Text
Язык : English
Default : Нет
Forced : Нет

Меню
00:00:00.000 : en:00:00:00.000
00:04:32.105 : en:00:04:32.105
00:07:38.750 : en:00:07:38.750
00:10:06.606 : en:00:10:06.606
00:15:15.123 : en:00:15:15.123
00:18:36.866 : en:00:18:36.866
00:26:13.530 : en:00:26:13.530
00:31:30.180 : en:00:31:30.180
00:35:22.495 : en:00:35:22.495
00:43:58.094 : en:00:43:58.094
00:46:22.488 : en:00:46:22.488
00:49:59.872 : en:00:49:59.872
00:53:43.720 : en:00:53:43.720
00:55:24.488 : en:00:55:24.488
00:58:01.436 : en:00:58:01.436
01:00:46.434 : en:01:00:46.434
01:04:33.870 : en:01:04:33.870
01:10:24.971 : en:01:10:24.971
01:12:42.858 : en:01:12:42.858
01:15:55.176 : en:01:15:55.176
01:19:14.667 : en:01:19:14.667
01:21:40.896 : en:01:21:40.896
01:24:37.990 : en:01:24:37.990
01:29:39.666 : en:01:29:39.666
01:32:02.058 : en:01:32:02.058
01:33:45.453 : en:01:33:45.453
01:39:29.046 : en:01:39:29.046
01:43:07.807 : en:01:43:07.807
01:44:30.389 : en:01:44:30.389
01:49:23.098 : en:01:49:23.098
Скриншоты
 

Вложения

  • 74,1 KB Просмотры: 0
    Личеров 0
    Сидеров 0
    Файлов 1
    Объем 14,6 GB

Привет!

Мы группа людей которые решили помочь другим в решении их проблем, а так же пользователям с поиском самых свежих и качественных инфопродуктов. За 4 с небольшим месяца мы создали этот форум на который заходят ежедневно тысячи человек и посещаемость постоянно растёт. Мы создали панель лицензирования для защиты PHP скриптов от воровства и SEO панель для мониторинга наших сайтов и выбора верной стратегии их развития. Мы надеемся что то что мы создали пригодится Вам и возможно Вы поможете нам развиваться и совершенствоваться вместе с Вами.

Статистика форума

Темы
406.656
Сообщения
465.104
Пользователи
84.661
Новый пользователь
tomik

Приложения форума для iOS и Android


У ркн там нет власти ;)
Приватные разговоры
Помощь Пользователи
    Вы не присоединились ни к одной комнате.