За последнюю неделю опубликовано 48 новых материалов.
Инструкция новичку Путеводитель по форуму Прокси для Telegram Показать подсказки , это бомба!

Скачать Опасная роль Джин Сиберг / Seberg (2019) WEB-DLRip-AVC от MediaBit | 10 bit | iTunes бесплатно через торрент

  • Поучаствуй (в качестве покупателя) в любых пяти совместных покупках (кроме завершённых и "Моментальных") и получи группу "Новичок" навсегда -> ссылка на раздел
  • Получай до 480 рублей за каждого приглашенного пользователя!
    представляем Вам очередное расширение партнерской программы, подробности описаны тут -> ссылка
  • 90% материалов доступно к скачиванию после простой регистрации!
    Если же ты хочешь скачивать материалы без требования оставлять отзывы то получи группу "Новичок", 10 способов повышения описаны тут -> ссылка
  • К сожалению количество битых ссылок растет и мы уже не можем их оперативно восстанавливать поэтому просим помощи у каждого нашего пользователя.
    С сегодняшнего дня, за каждую восстановленную ссылку мы заплатим Вам.
    Подробнее тут -> ссылка
  • Перенесем твои заслуги с другого ресурса!
    Мы понимаем как сложно прокачивать аккаунты на форумах, вроде раскачал аккаунт, а тут появляется ресурс в 100 раз круче но тоже с системой прокачки и снова качать аккаунт...
    Предлагаем вам перенести Ваши заслуги на другом подобном ресурсе к нам.
    Подробности описаны тут -> ссылка
  • Вы можете получать по 2.5% с каждой покупки и продажи на маркете! Подробности в теме Партнёрская программа
Если Вы не хотите скачивать, Вы всегда можетепосмотретьонлайн, просто нажмите кнопку ниже :

Открыть плеер

Torrent_Bot

Торрент-Бот
Бот форума
4 Окт 2016
93
160
20



Информация о фильме
Название: Опасная роль Джин Сиберг
Оригинальное название: Seberg
Год выхода: 2019
Жанр: Триллер, драма, биография
Режиссер: Бенедикт Эндрюс
В ролях: Кристен Стюарт, Джек О`Коннелл, Маргарет Куэлли, Зази Битц, Винс Вон, Энтони Маки, Стивен Рут, Иван Атталь, Колм Мини, Сер`Дариус Блэйн, Гэбриел Скай, Виктория Барабаш

О фильме:
История кинозвезды времен французской новой волны Джины Сиберг, которая в 1960-е годы, после переезда в США, увлеклась активной борьбой за права афроамериканцев. Ее деятельность привлекает внимание ФБР, ведущего полузаконную «контрразведывательную программу» COINTELPRO. Следить за актрисой поручают молодому и амбициозному агенту Джеку Соломону.



Страна: Великобритания, США
Студия: Phreaker Films, Bradley Pilz Productions, Automatik Entertainment
Продолжительность: 01:42:33
Перевод: Дублированный

Файл
Кодек: MPEG-4 AVC
Качество: WEB-DLRip-AVC (исходник WEB-DL 2160p)
Видео: 2019 Кбит/с, 1024x426, 23.976 кадр/с, 10 бит
Звук:
Аудио #1: Русский - AC3, 6 ch, 384 Кбит/с
Аудио #2: Английский - AC3, 6 ch, 384 Кбит/с
Субтитры: Английские

Семпл

MI
General
Unique ID : 5206388252947119631407695614867535782 (0x3EAB6C26705AF9E5FD2CC307385F7A6)
Complete name : D:2020 рипыОпасная роль Джин СибергOpasnaya.roli.Dzhin.Seberg.2019.x264.WEB-DLRip(AVC)-MediaBit.mkv
Format : Matroska
Format version : Version 4 / Version 2
File size : 2.00 GiB
Duration : 1 h 42 min
Overall bit rate : 2 787 kb/s
Movie name : Опасная роль Джин Сиберг (2019)
Encoded date : UTC 2020-05-24 08:03:05
Writing application : mkvmerge v25.0.0 ('Prog Noir') 64-bit
Writing library : libebml v1.3.6 + libmatroska v1.4.9 / Lavf58.20.100
ENCODING_INFO : MATROSKA,WEBM > MKV

Video
ID : 1
Format : AVC
Format/Info : Advanced Video Codec
Format profile : High [email protected]
Format settings : CABAC / 10 Ref Frames
Format settings, CABAC : Yes
Format settings, ReFrames : 10 frames
Codec ID : V_MPEG4/ISO/AVC
Duration : 1 h 42 min
Bit rate : 2 019 kb/s
Width : 1 024 pixels
Height : 426 pixels
Display aspect ratio : 2.40:1
Frame rate mode : Constant
Frame rate : 23.976 (24000/1001) FPS
Color space : YUV
Chroma subsampling : 4:2:0
Bit depth : 10 bits
Scan type : Progressive
Bits/(Pixel*Frame) : 0.193
Stream size : 1.44 GiB (72%)
Title : MediaBit
Writing library : x264 core 157 r2958 57baac4
Encoding settings : cabac=1 / ref=10 / deblock=1:-3:-3 / analyse=0x3:0x133 / me=umh / subme=9 / psy=1 / psy_rd=1.00:0.15 / mixed_ref=1 / me_range=48 / chroma_me=1 / trellis=1 / 8x8dct=1 / cqm=0 / deadzone=21,11 / fast_pskip=1 / chroma_qp_offset=-3 / threads=6 / lookahead_threads=1 / sliced_threads=0 / nr=0 / decimate=1 / interlaced=0 / bluray_compat=0 / constrained_intra=0 / bframes=10 / b_pyramid=2 / b_adapt=2 / b_bias=10 / direct=3 / weightb=1 / open_gop=0 / weightp=2 / keyint=240 / keyint_min=24 / scenecut=23 / intra_refresh=0 / rc_lookahead=240 / rc=2pass / mbtree=1 / bitrate=2019 / ratetol=1.0 / qcomp=0.60 / qpmin=0 / qpmax=69 / qpstep=4 / cplxblur=20.0 / qblur=0.5 / ip_ratio=1.40 / aq=1:1.00
Language : English
Default : Yes
Forced : No
Color range : Limited
Color primaries : BT.709
Transfer characteristics : BT.709
Matrix coefficients : BT.709
ENCODING_INFO : H264 > X264 VBR-2P 2019kbps HQ

Audio #1
ID : 2
Format : AC-3
Format/Info : Audio Coding 3
Codec ID : A_AC3
Duration : 1 h 42 min
Bit rate mode : Constant
Bit rate : 384 kb/s
Channel(s) : 6 channels
Channel positions : Front: L C R, Side: L R, LFE
Sampling rate : 48.0 kHz
Frame rate : 31.250 FPS (1536 SPF)
Bit depth : 16 bits
Compression mode : Lossy
Stream size : 281 MiB (14%)
Title : iTunes
Language : Russian
Service kind : Complete Main
Default : Yes
Forced : No
ENCODING_INFO : AC3 > AC3 CBR 384kbps

Audio #2
ID : 3
Format : AC-3
Format/Info : Audio Coding 3
Codec ID : A_AC3
Duration : 1 h 42 min
Bit rate mode : Constant
Bit rate : 384 kb/s
Channel(s) : 6 channels
Channel positions : Front: L C R, Side: L R, LFE
Sampling rate : 48.0 kHz
Frame rate : 31.250 FPS (1536 SPF)
Bit depth : 16 bits
Compression mode : Lossy
Stream size : 282 MiB (14%)
Title : Original
Language : English
Service kind : Complete Main
Default : No
Forced : No
ENCODING_INFO : EAC3 > AC3 CBR 384kbps

Text #1
ID : 4
Format : UTF-8
Codec ID : S_TEXT/UTF8
Codec ID/Info : UTF-8 Plain Text
Duration : 1 h 30 min
Bit rate : 50 b/s
Count of elements : 1110
Stream size : 33.1 KiB (0%)
Title : Full
Language : English
Default : Yes
Forced : No
ENCODING_INFO : SUBRIP > COPY Быстрое

Text #2
ID : 5
Format : UTF-8
Codec ID : S_TEXT/UTF8
Codec ID/Info : UTF-8 Plain Text
Duration : 1 h 41 min
Bit rate : 58 b/s
Count of elements : 1485
Stream size : 43.6 KiB (0%)
Title : SDH
Language : English
Default : No
Forced : No
ENCODING_INFO : SUBRIP > COPY Быстрое

Menu
00:00:00.000 : :1
00:05:20.219 : :2
00:10:13.178 : :3
00:15:38.294 : :4
00:21:51.834 : :5
00:30:25.055 : :6
00:36:41.472 : :7
00:44:34.278 : :8
00:53:36.778 : :9
01:00:49.085 : :10
01:08:46.935 : :11
01:14:50.340 : :12
01:21:58.559 : :13
01:26:13.187 : :14
01:27:36.728 : :15
01:34:58.418 : :16
Скриншоты

Релиз от:
 

Вложения

  • 23,3 KB Просмотры: 0
    Личеров 0
    Сидеров 0
    Файлов 1
    Объем 2 GB

Привет!

Мы группа людей которые решили помочь другим в решении их проблем, а так же пользователям с поиском самых свежих и качественных инфопродуктов. За 4 с небольшим месяца мы создали этот форум на который заходят ежедневно тысячи человек и посещаемость постоянно растёт. Мы создали панель лицензирования для защиты PHP скриптов от воровства и SEO панель для мониторинга наших сайтов и выбора верной стратегии их развития. Мы надеемся что то что мы создали пригодится Вам и возможно Вы поможете нам развиваться и совершенствоваться вместе с Вами.

Статистика форума

Темы
406.640
Сообщения
465.116
Пользователи
84.573
Новый пользователь
sobolsm

Приложения форума для iOS и Android


У ркн там нет власти ;)
Приватные разговоры
Помощь Пользователи
    Вы не присоединились ни к одной комнате.