За последнюю неделю опубликовано 29 новых материалов.
Инструкция новичку Путеводитель по форуму Прокси для Telegram Показать подсказки , это бомба!

Скачать Опасная гастроль / Command Performance (2009) BDRip 1080p | P2 бесплатно через торрент

  • Поучаствуй (в качестве покупателя) в любых пяти совместных покупках (кроме завершённых и "Моментальных") и получи группу "Новичок" навсегда -> ссылка на раздел
  • Получай до 480 рублей за каждого приглашенного пользователя!
    представляем Вам очередное расширение партнерской программы, подробности описаны тут -> ссылка
  • 90% материалов доступно к скачиванию после простой регистрации!
    Если же ты хочешь скачивать материалы без требования оставлять отзывы то получи группу "Новичок", 10 способов повышения описаны тут -> ссылка
  • К сожалению количество битых ссылок растет и мы уже не можем их оперативно восстанавливать поэтому просим помощи у каждого нашего пользователя.
    С сегодняшнего дня, за каждую восстановленную ссылку мы заплатим Вам.
    Подробнее тут -> ссылка
  • Перенесем твои заслуги с другого ресурса!
    Мы понимаем как сложно прокачивать аккаунты на форумах, вроде раскачал аккаунт, а тут появляется ресурс в 100 раз круче но тоже с системой прокачки и снова качать аккаунт...
    Предлагаем вам перенести Ваши заслуги на другом подобном ресурсе к нам.
    Подробности описаны тут -> ссылка
  • Вы можете получать по 2.5% с каждой покупки и продажи на маркете! Подробности в теме Партнёрская программа
Если Вы не хотите скачивать, Вы всегда можетепосмотретьонлайн, просто нажмите кнопку ниже :

Открыть плеер

Torrent_Bot

Торрент-Бот
Бот форума
4 Окт 2016
96
155
20
Информация о фильме
Название: Опасная гастроль
Оригинальное название: Command Performance
Год выхода: 2009
Жанр: Боевик, триллер, драма
Режиссер: Дольф Лундгрен
В ролях: Дольф Лундгрен, Мелисса Смит, Христо Шопов, Дэйв Леджено, Захари Бахаров, Клемент фон Франкенштейн, Ивайло Герасков, Шелли Варод, Ида Лундгрен

О фильме:
Во время Московского концерта американской звезды, который посетил русский премьер-министр, террористы устраивают диверсию. Все входы и выходы заблокированы, а единственная надежда многотысячной толпы — перкуссионный барабанщик, в прошлом служивший в морской пехоте.



Страна: США
Студия: Nu-Image Films, Cat Burglar Productions
Продолжительность: 01:33:25
Перевод: Профессиональный двухголосый | Лицензия R5

Файл
Кодек: x.264
Качество: BDRip 1080p | Command.Performance.2009.STV.1080p.BluRay.x264-IGUANA
Видео: MPEG-4 AVC, 1920x800, 11.7 Mбит/с, 23.976 кадр/с
Аудио #1: Русский ( АС3, 6ch, 448 Кбит/с, 48.0 KHz) Профессиональный (двухголосый, закадровый) Лицензия R5
Аудио #2: Английский ( АС3, 6ch, 448 Кбит/с, 48.0 KHz)
Субтитры: английские
MediaInfo
Источник: Command.Performance.2009.STV.1080p.BluRay.x264-IGUANA
General
Unique ID : 171087810830938648173640478931742954170 (0x80B6505530A45A8F952B5FE22A3D12BA)
Complete name : Command.Performance.2009.BDRip.1080p.mkv
Format : Matroska
Format version : Version 4 / Version 2
File size : 8.24 GiB
Duration : 1h 33mn
Overall bit rate : 12.6 Mbps
Encoded date : UTC 2018-09-20 18:54:42
Writing application : mkvmerge v7.1.0 ('Good Love') 64bit built on Jul 27 2014 13:06:55
Writing library : libebml v1.3.0 + libmatroska v1.4.1

Video
ID : 1
Format : AVC
Format/Info : Advanced Video Codec
Format profile : High@L4.1
Format settings, CABAC : Yes
Format settings, ReFrames : 5 frames
Codec ID : V_MPEG4/ISO/AVC
Duration : 1h 33mn
Bit rate : 11.7 Mbps
Width : 1 920 pixels
Height : 800 pixels
Display aspect ratio : 2.40:1
Frame rate mode : Constant
Frame rate : 23.976 fps
Color space : YUV
Chroma subsampling : 4:2:0
Bit depth : 8 bits
Scan type : Progressive
Bits/(Pixel*Frame) : 0.318
Stream size : 7.65 GiB (93%)
Writing library : x264 core 78 r1301 bcba15d
Encoding settings : cabac=1 / ref=5 / deblock=1:0:0 / analyse=0x3:0x133 / me=umh / subme=7 / psy=1 / psy_rd=1.0:0.0 / mixed_ref=1 / me_range=16 / chroma_me=1 / trellis=1 / 8x8dct=1 / cqm=0 / deadzone=21,11 / chroma_qp_offset=-2 / threads=12 / nr=0 / decimate=1 / mbaff=0 / constrained_intra=0 / bframes=3 / b_pyramid=0 / b_adapt=1 / b_bias=0 / direct=1 / wpredb=1 / keyint=250 / keyint_min=25 / scenecut=40 / rc_lookahead=40 / rc=2pass / mbtree=1 / bitrate=11729 / ratetol=1.0 / qcomp=0.60 / qpmin=10 / qpmax=51 / qpstep=4 / cplxblur=20.0 / qblur=0.5 / ip_ratio=1.40 / aq=1:1.00
Language : English
Default : Yes
Forced : No

Audio #1
ID : 2
Format : AC-3
Format/Info : Audio Coding 3
Mode extension : CM (complete main)
Format settings, Endianness : Big
Codec ID : A_AC3
Duration : 1h 33mn
Bit rate mode : Constant
Bit rate : 448 Kbps
Channel(s) : 6 channels
Channel positions : Front: L C R, Side: L R, LFE
Sampling rate : 48.0 KHz
Frame rate : 31.250 fps (1536 spf)
Compression mode : Lossy
Stream size : 299 MiB (4%)
Language : Russian
Default : Yes
Forced : No

Audio #2
ID : 3
Format : AC-3
Format/Info : Audio Coding 3
Mode extension : CM (complete main)
Format settings, Endianness : Big
Codec ID : A_AC3
Duration : 1h 33mn
Bit rate mode : Constant
Bit rate : 448 Kbps
Channel(s) : 6 channels
Channel positions : Front: L C R, Side: L R, LFE
Sampling rate : 48.0 KHz
Frame rate : 31.250 fps (1536 spf)
Compression mode : Lossy
Stream size : 299 MiB (4%)
Language : English
Default : No
Forced : No

Text
ID : 4
Format : UTF-8
Codec ID : S_TEXT/UTF8
Codec ID/Info : UTF-8 Plain Text
Duration : 1h 30mn
Bit rate : 43 bps
Count of elements : 1032
Stream size : 29.0 KiB (0%)
Language : English
Default : No
Forced : No

Menu
00:00:00.000 : en:00:00:00.000
00:09:19.559 : en:00:09:19.559
00:17:25.670 : en:00:17:25.670
00:26:06.732 : en:00:26:06.732
00:33:19.414 : en:00:33:19.414
00:40:20.251 : en:00:40:20.251
00:49:26.046 : en:00:49:26.046
00:56:45.986 : en:00:56:45.986
01:01:17.883 : en:01:01:17.883
01:09:41.386 : en:01:09:41.386
01:15:32.194 : en:01:15:32.194
01:26:11.917 : en:01:26:11.917
01:29:01.002 : en:01:29:01.002
Скриншоты
 

Вложения

  • 21,5 KB Просмотры: 1
    Личеров 0
    Сидеров 0
    Файлов 1
    Объем 8,2 GB

Привет!

Мы группа людей которые решили помочь другим в решении их проблем, а так же пользователям с поиском самых свежих и качественных инфопродуктов. За 4 с небольшим месяца мы создали этот форум на который заходят ежедневно тысячи человек и посещаемость постоянно растёт. Мы создали панель лицензирования для защиты PHP скриптов от воровства и SEO панель для мониторинга наших сайтов и выбора верной стратегии их развития. Мы надеемся что то что мы создали пригодится Вам и возможно Вы поможете нам развиваться и совершенствоваться вместе с Вами.

Статистика форума

Темы
406.520
Сообщения
464.553
Пользователи
82.901
Новый пользователь
Keks21

Приложения форума для iOS и Android


У ркн там нет власти ;)
Приватные разговоры
Помощь Пользователи
    Вы не присоединились ни к одной комнате.