За последнюю неделю опубликовано 0 новых материалов.
Инструкция новичку Путеводитель по форуму Прокси для Telegram Показать подсказки , это бомба!

Скачать Онихэй / Onihei [S01] (2017) HDTVRip 720p | AniDub бесплатно через торрент

  • Поучаствуй (в качестве покупателя) в любых пяти совместных покупках (кроме завершённых и "Моментальных") и получи группу "Новичок" навсегда -> ссылка на раздел
  • Получай до 480 рублей за каждого приглашенного пользователя!
    представляем Вам очередное расширение партнерской программы, подробности описаны тут -> ссылка
  • 90% материалов доступно к скачиванию после простой регистрации!
    Если же ты хочешь скачивать материалы без требования оставлять отзывы то получи группу "Новичок", 10 способов повышения описаны тут -> ссылка
  • К сожалению количество битых ссылок растет и мы уже не можем их оперативно восстанавливать поэтому просим помощи у каждого нашего пользователя.
    С сегодняшнего дня, за каждую восстановленную ссылку мы заплатим Вам.
    Подробнее тут -> ссылка
  • Перенесем твои заслуги с другого ресурса!
    Мы понимаем как сложно прокачивать аккаунты на форумах, вроде раскачал аккаунт, а тут появляется ресурс в 100 раз круче но тоже с системой прокачки и снова качать аккаунт...
    Предлагаем вам перенести Ваши заслуги на другом подобном ресурсе к нам.
    Подробности описаны тут -> ссылка
  • Вы можете получать по 2.5% с каждой покупки и продажи на маркете! Подробности в теме Партнёрская программа

Torrent_Bot

Торрент-Бот
Бот форума
4 Окт 2016
79
195
20
Информация о фильме
Название: Онихэй
Оригинальное название: Onihei
Год выхода: 2017
Жанр: самурайский боевик, приключения
Режиссер: Мия Сигэюки
Художник: Акиба Минору
В ролях: Хориути Кэнъю, Намикава Дайсукэ, Ивао Дзюнко, Сэнбонги Саяка, Пак Роми, Окамото Нобухико, Мидзути Киёмицу, Хамада Кэндзи, Киути Хидэнобу, Иидзука Сёдзо, Хосоя Ёсимаса, Танака Хидэюки
О фильме:
Главный герой этой истории, Хасегава Хейдзо - начальник специальной полиции, в чьем ведомстве аресты поджигателей и грабителей в Эдо. Возглавляя полицейскую структуру, он привлекал бывших преступников в качестве информаторов к раскрытию сложных преступлений.
Название истории - прозвище главного героя, которое можно перевести как "демон Хейдзо".

d77904bb64b9147aea652cf1e4bb0f54.gif41600e522e14e1d59f2be52f65532ea0.gif
World Art | MAL

Страна: Япония
Студия: Studio M2 & TMS
Продолжительность: 00:24:14
Язык: Русский, Японский
Перевод: Любительский (двухголосый, закадровый)

Файл
Качество: HDTVRip
Формат: MKV
Кодек: H.264
Аудио кодек: AAC
Видео: 1280x720, 23.976 fps, 2000 kbps
Аудио RUS: 48.0 kHz, AAC, 2 ch, 192 kbps - AniDub
Аудио JAP: 48.0 kHz, AAC, 2 ch, 192 kbps
Субтитры: русские (встроенные полный перевод, ASS) - Anku & mutagenb
Субтитры: русские (встроенные полный перевод, ASS) - YakuSub Studio

Релиз от:
Озвучивание: Cuba77, Demetra
Перевод: Anku, MutagenB
Тайминг и работа со звуком: Sakuragi_R

Скриншоты
e9ef08cdf3ef91a0820b8ef28847c647.jpg07a26b6e7905b88da91914eacaf215cd.jpg9d7c403f36da67cad2e635ad13228a8c.jpg750473e051636e7bc7f163600f506d0c.jpge4de28c01beb7dc3ecf752d8a4f78bc4.jpg
Список серий
01. Тамбэй из Чигаширы
02. Хондзё. Поместье сакуры
03. Скрытая угроза, пахнущая белой сливой
04. Кровавая битва
05. Янака. Чайная Ироха
06. Тайны воровского дела
07. Бьющий кувшины мальчишка
08. Старик Окавы
09. Распутье
10. Конец Васкэ из додзё
11. Мужчина из прошлого
12. Отчаянный
13. Блуждающий огонёк
MediaInfo
General
Format : Matroska
Format version : Version 4 / Version 2
File size : 411 MiB
Duration : 24 min
Overall bit rate : 2 367 kb/s
Encoded date : UTC 2017-02-25 08:32:46
Writing application : mkvmerge v8.3.0 ('Over the Horizon') 64bit
Writing library : libebml v1.3.1 + libmatroska v1.4.2

Video
ID : 1
Format : AVC
Format/Info : Advanced Video Codec
Format profile : [email protected]
Format settings, CABAC : Yes
Format settings, ReFrames : 4 frames
Codec ID : V_MPEG4/ISO/AVC
Duration : 24 min
Bit rate : 1 980 kb/s
Width : 1 280 pixels
Height : 720 pixels
Display aspect ratio : 16:9
Frame rate mode : Constant
Frame rate : 23.976 (24000/1001) FPS
Color space : YUV
Chroma subsampling : 4:2:0
Bit depth : 8 bits
Scan type : Progressive
Bits/(Pixel*Frame) : 0.090
Stream size : 343 MiB (84%)
Writing library : x264 core 129 r2245+729M 1a52e03
Encoding settings : cabac=1 / ref=4 / deblock=1:1:-1 / analyse=0x3:0x113 / me=umh / subme=9 / psy=1 / fade_compensate=0.00 / psy_rd=1.00:0.00 / mixed_ref=1 / me_range=24 / chroma_me=1 / trellis=2 / 8x8dct=1 / cqm=0 / deadzone=21,11 / fast_pskip=1 / chroma_qp_offset=-2 / threads=8 / lookahead_threads=1 / sliced_threads=0 / nr=0 / decimate=1 / interlaced=0 / bluray_compat=0 / constrained_intra=0 / fgo=0 / bframes=9 / b_pyramid=2 / b_adapt=2 / b_bias=0 / direct=1 / weightb=1 / open_gop=0 / weightp=2 / keyint=240 / keyint_min=24 / scenecut=40 / intra_refresh=0 / rc=crf / mbtree=0 / crf=18.5 / qcomp=0.72 / qpmin=0 / qpmax=69 / qpstep=4 / ip_ratio=1.40 / pb_ratio=1.30 / aq=1:0.85
Default : Yes
Forced : No
Color range : Limited
Color primaries : BT.709
Transfer characteristics : BT.709
Matrix coefficients : BT.709

Audio #1
ID : 2
Format : AAC
Format/Info : Advanced Audio Codec
Format profile : LC
Codec ID : A_AAC
Duration : 24 min
Bit rate : 192 kb/s
Channel(s) : 2 channels
Channel positions : Front: L R
Sampling rate : 48.0 kHz
Frame rate : 46.875 FPS (1024 spf)
Compression mode : Lossy
Stream size : 33.3 MiB (8%)
Title : AniDub
Language : Russian
Default : Yes
Forced : No

Audio #2
ID : 3
Format : AAC
Format/Info : Advanced Audio Codec
Format profile : LC
Codec ID : A_AAC
Duration : 24 min
Bit rate : 192 kb/s
Channel(s) : 2 channels
Channel positions : Front: L R
Sampling rate : 48.0 kHz
Frame rate : 46.875 FPS (1024 spf)
Compression mode : Lossy
Stream size : 33.3 MiB (8%)
Title : Original
Language : Japanese
Default : No
Forced : No

Text #1
ID : 4
Format : ASS
Codec ID : S_TEXT/ASS
Codec ID/Info : Advanced Sub Station Alpha
Duration : 23 min
Bit rate : 109 b/s
Count of elements : 261
Compression mode : Lossless
Stream size : 19.0 KiB (0%)
Title : Полные субтитры - Anku & mutagenb
Language : Russian
Default : Yes
Forced : No

Text #2
ID : 5
Format : ASS
Codec ID : S_TEXT/ASS
Codec ID/Info : Advanced Sub Station Alpha
Duration : 23 min
Bit rate : 139 b/s
Count of elements : 299
Compression mode : Lossless
Stream size : 24.4 KiB (0%)
Title : Полные субтитры - YakuSub Studio
Language : Russian
Default : No
Forced : No
 

Вложения

Привет!

Мы группа людей которые решили помочь другим в решении их проблем, а так же пользователям с поиском самых свежих и качественных инфопродуктов. За 4 с небольшим месяца мы создали этот форум на который заходят ежедневно тысячи человек и посещаемость постоянно растёт. Мы создали панель лицензирования для защиты PHP скриптов от воровства и SEO панель для мониторинга наших сайтов и выбора верной стратегии их развития. Мы надеемся что то что мы создали пригодится Вам и возможно Вы поможете нам развиваться и совершенствоваться вместе с Вами.

Статистика форума

Темы
414.370
Сообщения
475.396
Пользователи
96.561
Новый пользователь
starushka

Приложения форума для iOS и Android


У ркн там нет власти ;)
Приватные разговоры
Помощь Пользователи
    Вы не присоединились ни к одной комнате.