За последнюю неделю опубликовано 62 новых материалов.
Инструкция новичку Путеводитель по форуму Прокси для Telegram Показать подсказки , это бомба!

Скачать Он, я и его друзья / You, Me and Dupree (2006) BDRip 1080p | D бесплатно через торрент

  • Поучаствуй (в качестве покупателя) в любых пяти совместных покупках (кроме завершённых и "Моментальных") и получи группу "Новичок" навсегда -> ссылка на раздел
  • Получай до 480 рублей за каждого приглашенного пользователя!
    представляем Вам очередное расширение партнерской программы, подробности описаны тут -> ссылка
  • 90% материалов доступно к скачиванию после простой регистрации!
    Если же ты хочешь скачивать материалы без требования оставлять отзывы то получи группу "Новичок", 10 способов повышения описаны тут -> ссылка
  • К сожалению количество битых ссылок растет и мы уже не можем их оперативно восстанавливать поэтому просим помощи у каждого нашего пользователя.
    С сегодняшнего дня, за каждую восстановленную ссылку мы заплатим Вам.
    Подробнее тут -> ссылка
  • Перенесем твои заслуги с другого ресурса!
    Мы понимаем как сложно прокачивать аккаунты на форумах, вроде раскачал аккаунт, а тут появляется ресурс в 100 раз круче но тоже с системой прокачки и снова качать аккаунт...
    Предлагаем вам перенести Ваши заслуги на другом подобном ресурсе к нам.
    Подробности описаны тут -> ссылка
  • Вы можете получать по 2.5% с каждой покупки и продажи на маркете! Подробности в теме Партнёрская программа
Если Вы не хотите скачивать, Вы всегда можетепосмотретьонлайн, просто нажмите кнопку ниже :

Открыть плеер

Torrent_Bot

Торрент-Бот
Бот форума
4 Окт 2016
92
160
20

Название: Он, я и его друзья
Оригинальное название: You, Me and Dupree
Год выхода: 2006

Страна: США
Студия: Universal Pictures, Kaplan / Perrone Entertainment, MMCB Film Produktion 2004
Продолжительность: 01:49:24
Жанр: мелодрама, комедия

Режиссер: Энтони Руссо, Джо Руссо
В ролях: Оуэн Уилсон, Кейт Хадсон, Мэтт Диллон, Майкл Дуглас, Сет Роген, Аманда Детмер, Ральф Тинг, Тодд Стэшвик, Билл Хэйдер, Лэнс Армстронг, ...

Перевод: профессиональный (дублированный) Пифагор BD EUR


О фильме: Молодая пара наконец-то решает пожениться, правда, семейная жизнь у них не заладилась с самого первого дня — друг семьи Дюпри собрался немного пожить вместе с ними, правда, это «немного», похоже, слишком затянулось. Как же избавиться от незваного гостя?…






Кодек: x264
Качество: BDRip 1080p
Видео: 1920x1040 , 14000 kbps, 23,976 fps
Аудио #1: AC-3, 6 ch, 448 kbps (Rus) - Dub Пифагор
Аудио #2: DTS, 6 ch, 1509 kbps (Eng)
Субтитры: русские (Forced), английские

Дополнительная информация
За исходник спасибо - LEV:)
MediaInfo
x264 [info]: frame I:1215 Avg QP:17.18 size:232912
x264 [info]: frame P:36856 Avg QP:19.49 size:114500
x264 [info]: frame B:119321 Avg QP:21.30 size: 58481
x264 [info]: consecutive B-frames: 1.5% 7.5% 4.2% 32.4% 23.3% 19.5% 9.6% 0.4% 1.1% 0.3% 0.1% 0.0% 0.0% 0.1% 0.1%

Общее
Уникальный идентификатор : 203622970091239873820512733066440911057 (0x99305B8828D2A1E2B6A71C4C84BEA8D1)
Полное имя : Он, я и его друзья (You, Me and Dupree) 2006 BDRip 1080p.mkv
Формат : Matroska
Версия формата : Version 2
Размер файла : 12,2 Гбайт
Продолжительность : 1 ч. 49 м.
Общий поток : 16,0 Мбит/сек
Дата кодирования : UTC 2020-06-15 05:56:28
Программа кодирования : mkvmerge v4.0.0 ('The Stars were mine') сборка от Jun 6 2010 16:18:42
Библиотека кодирования : libebml v1.0.0 + libmatroska v1.0.0

Видео
Идентификатор : 1
Формат : AVC
Формат/Информация : Advanced Video Codec
Профиль формата : [email protected]
Параметр CABAC формата : Да
Параметр ReFrames формата : 4 кадра
Идентификатор кодека : V_MPEG4/ISO/AVC
Продолжительность : 1 ч. 49 м.
Битрейт : 14,0 Мбит/сек
Ширина : 1920 пикселей
Высота : 1040 пикселей
Соотношение сторон : 1,85:1
Режим частоты кадров : Постоянный
Частота кадров : 23,976 (24000/1001) кадра/сек
Цветовое пространство : YUV
Субдискретизация насыщенности : 4:2:0
Битовая глубина : 8 бит
Тип развёртки : Прогрессивная
Бит/(Пиксели*Кадры) : 0.292
Размер потока : 10,5 Гбайт (86%)
Библиотека кодирования : x264 core 146 r2538 121396c
Настройки программы : cabac=1 / ref=4 / deblock=1:-1:-1 / analyse=0x3:0x133 / me=umh / subme=11 / psy=1 / psy_rd=1.00:0.00 / mixed_ref=1 / me_range=32 / chroma_me=1 / trellis=2 / 8x8dct=1 / cqm=0 / deadzone=21,11 / fast_pskip=0 / chroma_qp_offset=-2 / threads=12 / lookahead_threads=2 / sliced_threads=0 / nr=0 / decimate=0 / interlaced=0 / bluray_compat=0 / constrained_intra=0 / bframes=14 / b_pyramid=2 / b_adapt=2 / b_bias=0 / direct=3 / weightb=1 / open_gop=0 / weightp=2 / keyint=240 / keyint_min=23 / scenecut=40 / intra_refresh=0 / rc=2pass / mbtree=0 / bitrate=14000 / ratetol=1.0 / qcomp=0.60 / qpmin=0 / qpmax=69 / qpstep=4 / cplxblur=20.0 / qblur=0.5 / ip_ratio=1.40 / pb_ratio=1.30 / aq=2:0.80
Язык : English
Default : Нет
Forced : Нет

Аудио #1
Идентификатор : 2
Формат : AC-3
Формат/Информация : Audio Coding 3
Расширение режима : CM (complete main)
Параметр Endianness формата : Big
Идентификатор кодека : A_AC3
Продолжительность : 1 ч. 49 м.
Вид битрейта : Постоянный
Битрейт : 448 Кбит/сек
Каналы : 6 каналов
Расположение каналов : Front: L C R, Side: L R, LFE
Частота : 48,0 КГц
Частота кадров : 31,250 кадров/сек (1536 spf)
Метод сжатия : С потерями
Размер потока : 351 Мбайт (3%)
Заголовок : Dub Пифагор BD EUR
Язык : Russian
Default : Нет
Forced : Нет

Аудио #2
Идентификатор : 3
Формат : DTS
Формат/Информация : Digital Theater Systems
Режим : 16
Параметр Endianness формата : Big
Идентификатор кодека : A_DTS
Продолжительность : 1 ч. 49 м.
Вид битрейта : Постоянный
Битрейт : 1509 Кбит/сек
Каналы : 6 каналов
Расположение каналов : Front: L C R, Side: L R, LFE
Частота : 48,0 КГц
Частота кадров : 93,750 кадра/сек (512 spf)
Битовая глубина : 24 бит
Метод сжатия : С потерями
Размер потока : 1,15 Гбайт (9%)
Язык : English
Default : Нет
Forced : Нет

Текст #1
Идентификатор : 4
Формат : UTF-8
Идентификатор кодека : S_TEXT/UTF8
Идентификатор кодека/Информация : UTF-8 Plain Text
Заголовок : Forced
Язык : Russian
Default : Нет
Forced : Нет

Текст #2
Идентификатор : 5
Формат : UTF-8
Идентификатор кодека : S_TEXT/UTF8
Идентификатор кодека/Информация : UTF-8 Plain Text
Язык : English
Default : Нет
Forced : Нет

Меню
00:00:00.000 : en:Chapter 01
00:05:53.227 : en:Chapter 02
00:10:24.206 : en:Chapter 03
00:15:33.724 : en:Chapter 04
00:22:35.437 : en:Chapter 05
00:29:09.247 : en:Chapter 06
00:36:44.076 : en:Chapter 07
00:44:07.436 : en:Chapter 08
00:50:33.947 : en:Chapter 09
00:55:36.458 : en:Chapter 10
01:02:33.541 : en:Chapter 11
01:07:37.136 : en:Chapter 12
01:15:12.799 : en:Chapter 13
01:23:07.315 : en:Chapter 14
01:27:33.539 : en:Chapter 15
01:31:52.924 : en:Chapter 16
01:36:09.013 : en:Chapter 17
01:39:08.943 : en:Chapter 18
01:42:49.037 : en:Chapter 19
01:44:17.417 : en:Chapter 20
01:49:17.133 : en:Chapter 21

 

Вложения

  • 61,9 KB Просмотры: 0
    Личеров 0
    Сидеров 0
    Файлов 1
    Объем 12,2 GB

Привет!

Мы группа людей которые решили помочь другим в решении их проблем, а так же пользователям с поиском самых свежих и качественных инфопродуктов. За 4 с небольшим месяца мы создали этот форум на который заходят ежедневно тысячи человек и посещаемость постоянно растёт. Мы создали панель лицензирования для защиты PHP скриптов от воровства и SEO панель для мониторинга наших сайтов и выбора верной стратегии их развития. Мы надеемся что то что мы создали пригодится Вам и возможно Вы поможете нам развиваться и совершенствоваться вместе с Вами.

Статистика форума

Темы
406.656
Сообщения
465.104
Пользователи
84.660
Новый пользователь
nic34

Приложения форума для iOS и Android


У ркн там нет власти ;)
Приватные разговоры
Помощь Пользователи
    Вы не присоединились ни к одной комнате.