За последнюю неделю опубликовано 86 новых материалов.
Инструкция новичку Путеводитель по форуму Прокси для Telegram Показать подсказки , это бомба!

Скачать Омерзительная восьмерка / The Hateful Eight (2015) WEB-DLRip-AVC | D, P, А | Extended Cut бесплатно через торрент

  • Поучаствуй (в качестве покупателя) в любых пяти совместных покупках (кроме завершённых и "Моментальных") и получи группу "Новичок" навсегда -> ссылка на раздел
  • Получай до 480 рублей за каждого приглашенного пользователя!
    представляем Вам очередное расширение партнерской программы, подробности описаны тут -> ссылка
  • 90% материалов доступно к скачиванию после простой регистрации!
    Если же ты хочешь скачивать материалы без требования оставлять отзывы то получи группу "Новичок", 10 способов повышения описаны тут -> ссылка
  • К сожалению количество битых ссылок растет и мы уже не можем их оперативно восстанавливать поэтому просим помощи у каждого нашего пользователя.
    С сегодняшнего дня, за каждую восстановленную ссылку мы заплатим Вам.
    Подробнее тут -> ссылка
  • Перенесем твои заслуги с другого ресурса!
    Мы понимаем как сложно прокачивать аккаунты на форумах, вроде раскачал аккаунт, а тут появляется ресурс в 100 раз круче но тоже с системой прокачки и снова качать аккаунт...
    Предлагаем вам перенести Ваши заслуги на другом подобном ресурсе к нам.
    Подробности описаны тут -> ссылка
  • Вы можете получать по 2.5% с каждой покупки и продажи на маркете! Подробности в теме Партнёрская программа
Если Вы не хотите скачивать, Вы всегда можетепосмотретьонлайн, просто нажмите кнопку ниже :

Открыть плеер

Torrent_Bot

Торрент-Бот
Бот форума
4 Окт 2016
102
153
20



Информация о фильме
Название: Омерзительная восьмерка
Оригинальное название: The Hateful Eight
Год выхода: 2015
Жанр: Триллер, драма, криминал, детектив, вестерн
Режиссер: Квентин Тарантино
В ролях: Курт Расселл, Сэмюэл Л. Джексон, Тим Рот, Майкл Мэдсен, Дженнифер Джейсон Ли, Уолтон Гоггинс, Демиан Бишир, Брюс Дерн, Джеймс Паркс, Дэна Гурье, Зои Белл, Ли Хорсли, Джин Джонс, Кит Джеффресон, Крэйг Старк, Белинда Овино, Ченнинг Татум, Брюс Дель Кастилло, Квентин Тарантино

О фильме:
Эта добрая история от Квентина Тарантино начинается в занесенных снегами полях Вайоминга вблизи Скалистых гор спустя два года после окончания Гражданской войны. Знаменитый охотник за головами Джон "Вешатель" Рут галантно сопровождает до ближайшей виселицы некую Дейзи Домергу, беспрестанно демонстрирующую ослепительную улыбку в три зуба. На дороге они подбирают еще двоих случайных попутчиков. Все четверо вынуждены искать укрытие от надвигающегося снежного бурана в галантерейной лавке Минни на горном перевале, где их ожидает целый парк кровавых аттракционов.



Выпущено: США / The Weinstein Company LLC
Продолжительность: 4 x ~00:52:00
Перевод: Дублированный (со вставками аторского на расширенные места), + профессиональный (многоголосый закадровый) + авторский (одноголосый, закадровый)
Субтитры: Английские

Файл
Формат: Matroska
Качество: WEB-DLRip-AVC
Видео: 960x348, ~1700 Кbit/s, 23.976 fps
Аудио #1: AAC, 2 ch, ~80 Kbps | MVO (СВ Студия)
Аудио #2: AAC, 2 ch, ~80 Kbps | DUB (+ AVO на расширенные места)
Аудио #3: AAC, 2 ch, ~80 Kbps | AVO (Д.Есарев)
Аудио #4: AAC, 2 ch, ~80 Kbps | ENG
Формат субтитров: softsub (SRT)

***Релиз от:-=DoMiNo=-

Дополнительно:
ЦитатаКто-то писал:
Перевод расширенной Extended версии в авторском переводе доступен благодаря petrena. Работа со звуком - mihailnds.

Дубляж взят с лицензионного Blu-Ray и подогнан под расширенную версию фильма. В расширенные места вставлены фрагменты из авторского одноголосого перевода Д. Есарева. Работа со звуком - karasidi.

В переводе Д. Есарева присутствует ненормативная лексика!

В переводе СВ Студия присутствует ненормативная лексика!

В дубляже присутствует ненормативная лексика! (в вставках одноголосого)
M/I
General
Unique ID : 285061129160291431562704329047909650021 (0xD674C6C6488B9B1D3034AF7C1D8CCE65)
Complete name : 03_The.Hateful.Eight.2015.Extended.WEB-DLRip-AVC.[-=DoMiNo=-].mkv
Format : Matroska
Format version : Version 4
File size : 762 MiB
Duration : 53 min 45 s
Overall bit rate : 1 982 kb/s
Encoded date : UTC 2019-06-13 06:36:13
Writing application : mkvmerge v34.0.0 ('Sight and Seen') 64-bit
Writing library : libebml v1.3.7 + libmatroska v1.5.0
Attachments : poster / poster

Video
ID : 1
Format : AVC
Format/Info : Advanced Video Codec
Format profile : High@L4.1
Format settings : CABAC / 12 Ref Frames
Format settings, CABAC : Yes
Format settings, Reference : 12 frames
Codec ID : V_MPEG4/ISO/AVC
Duration : 53 min 45 s
Bit rate : 1 661 kb/s
Width : 960 pixels
Height : 348 pixels
Display aspect ratio : 2.759
Frame rate mode : Constant
Frame rate : 23.976 (24000/1001) FPS
Color space : YUV
Chroma subsampling : 4:2:0
Bit depth : 8 bits
Scan type : Progressive
Bits/(Pixel*Frame) : 0.207
Stream size : 639 MiB (84%)
Title : RIP_BY_-=DoMiNo=-
Writing library : x264 core 157 r2969 d4099dd
Encoding settings : cabac=1 / ref=12 / deblock=1:-2:-2 / analyse=0x3:0x133 / me=umh / subme=11 / psy=1 / psy_rd=1.00:0.00 / mixed_ref=1 / me_range=32 / chroma_me=1 / trellis=2 / 8x8dct=1 / cqm=0 / deadzone=21,11 / fast_pskip=0 / chroma_qp_offset=-2 / threads=6 / lookahead_threads=1 / sliced_threads=0 / nr=0 / decimate=0 / interlaced=0 / bluray_compat=0 / constrained_intra=0 / bframes=12 / b_pyramid=2 / b_adapt=2 / b_bias=0 / direct=3 / weightb=1 / open_gop=0 / weightp=2 / keyint=250 / keyint_min=23 / scenecut=40 / intra_refresh=0 / rc=2pass / mbtree=0 / bitrate=1661 / ratetol=1.0 / qcomp=0.70 / qpmin=0 / qpmax=69 / qpstep=4 / cplxblur=20.0 / qblur=0.5 / ip_ratio=1.40 / pb_ratio=1.30 / aq=3:1.00
Language : English
Default : Yes
Forced : No

Audio #1
ID : 2
Format : AAC LC SBR
Format/Info : Advanced Audio Codec Low Complexity with Spectral Band Replication
Commercial name : HE-AAC
Format settings : Explicit
Codec ID : A_AAC-2
Duration : 53 min 45 s
Bit rate : 78.7 kb/s
Channel(s) : 2 channels
Channel layout : L R
Sampling rate : 48.0 kHz
Frame rate : 23.438 FPS (2048 SPF)
Compression mode : Lossy
Stream size : 30.3 MiB (4%)
Title : MVO_[СВ Студия]
Language : Russian
Default : Yes
Forced : No

Audio #2
ID : 3
Format : AAC LC SBR
Format/Info : Advanced Audio Codec Low Complexity with Spectral Band Replication
Commercial name : HE-AAC
Format settings : Implicit
Codec ID : A_AAC-2
Duration : 53 min 45 s
Bit rate : 80.0 kb/s
Channel(s) : 2 channels
Channel layout : L R
Sampling rate : 48.0 kHz
Frame rate : 23.438 FPS (2048 SPF)
Compression mode : Lossy
Stream size : 30.8 MiB (4%)
Title : Dub+AVO
Language : Russian
Default : No
Forced : No

Audio #3
ID : 4
Format : AAC LC SBR
Format/Info : Advanced Audio Codec Low Complexity with Spectral Band Replication
Commercial name : HE-AAC
Format settings : Implicit
Codec ID : A_AAC-2
Duration : 53 min 45 s
Bit rate : 80.0 kb/s
Channel(s) : 2 channels
Channel layout : L R
Sampling rate : 48.0 kHz
Frame rate : 23.438 FPS (2048 SPF)
Compression mode : Lossy
Stream size : 30.8 MiB (4%)
Title : AVO [Д.Есарев]
Language : Russian
Default : No
Forced : No

Audio #4
ID : 5
Format : AAC LC SBR
Format/Info : Advanced Audio Codec Low Complexity with Spectral Band Replication
Commercial name : HE-AAC
Format settings : Explicit
Codec ID : A_AAC-2
Duration : 53 min 45 s
Bit rate : 78.7 kb/s
Channel(s) : 2 channels
Channel layout : L R
Sampling rate : 48.0 kHz
Frame rate : 23.438 FPS (2048 SPF)
Compression mode : Lossy
Stream size : 30.3 MiB (4%)
Title : ENG
Language : English
Default : No
Forced : No

Text
ID : 6
Format : UTF-8
Codec ID : S_TEXT/UTF8
Codec ID/Info : UTF-8 Plain Text
Duration : 49 min 8 s
Bit rate : 60 b/s
Count of elements : 1163
Stream size : 21.8 KiB (0%)
Title : SDH
Language : English
Default : No
Forced : No

Menu
00:00:00.000 : :Opening Credits
00:04:00.741 : :Chapter Three: Domergue's Got a Secret / Секрет Домергу
00:49:21.709 : :Final Credits
Скриншоты
 

Вложения

  • 16,2 KB Просмотры: 1
    Личеров 0
    Сидеров 0
    Файлов 4
    Объем 3 GB

Привет!

Мы группа людей которые решили помочь другим в решении их проблем, а так же пользователям с поиском самых свежих и качественных инфопродуктов. За 4 с небольшим месяца мы создали этот форум на который заходят ежедневно тысячи человек и посещаемость постоянно растёт. Мы создали панель лицензирования для защиты PHP скриптов от воровства и SEO панель для мониторинга наших сайтов и выбора верной стратегии их развития. Мы надеемся что то что мы создали пригодится Вам и возможно Вы поможете нам развиваться и совершенствоваться вместе с Вами.

Статистика форума

Темы
405.448
Сообщения
462.415
Пользователи
80.461
Новый пользователь
Wowpurple

Приложения форума для iOS и Android


У ркн там нет власти ;)
Приватные разговоры
Помощь Пользователи
    Вы не присоединились ни к одной комнате.