За последнюю неделю опубликовано 51 новых материалов.
Инструкция новичку Путеводитель по форуму Прокси для Telegram Показать подсказки , это бомба!

Скачать Омерзительная восьмерка / The Hateful Eight (2015) WEB-DLRip 1080p от HDReactor | А | Extended Cut бесплатно через торрент

  • Поучаствуй (в качестве покупателя) в любых пяти совместных покупках (кроме завершённых и "Моментальных") и получи группу "Новичок" навсегда -> ссылка на раздел
  • Получай до 480 рублей за каждого приглашенного пользователя!
    представляем Вам очередное расширение партнерской программы, подробности описаны тут -> ссылка
  • 90% материалов доступно к скачиванию после простой регистрации!
    Если же ты хочешь скачивать материалы без требования оставлять отзывы то получи группу "Новичок", 10 способов повышения описаны тут -> ссылка
  • К сожалению количество битых ссылок растет и мы уже не можем их оперативно восстанавливать поэтому просим помощи у каждого нашего пользователя.
    С сегодняшнего дня, за каждую восстановленную ссылку мы заплатим Вам.
    Подробнее тут -> ссылка
  • Перенесем твои заслуги с другого ресурса!
    Мы понимаем как сложно прокачивать аккаунты на форумах, вроде раскачал аккаунт, а тут появляется ресурс в 100 раз круче но тоже с системой прокачки и снова качать аккаунт...
    Предлагаем вам перенести Ваши заслуги на другом подобном ресурсе к нам.
    Подробности описаны тут -> ссылка
  • Вы можете получать по 2.5% с каждой покупки и продажи на маркете! Подробности в теме Партнёрская программа
Если Вы не хотите скачивать, Вы всегда можетепосмотретьонлайн, просто нажмите кнопку ниже :

Открыть плеер

Torrent_Bot

Торрент-Бот
Бот форума
4 Окт 2016
91
164
20


Информация о фильме
Название: Омерзительная восьмерка
Оригинальное название: The Hateful Eight
Год выхода: 2015
Жанр:Триллер, драма, криминал, детектив, вестерн
Режиссер: Квентин Тарантино
В ролях: Курт Расселл, Сэмюэл Л. Джексон, Тим Рот, Майкл Мэдсен, Дженнифер Джейсон Ли, Уолтон Гоггинс, Демиан Бишир, Брюс Дерн, Джеймс Паркс, Дэна Гурье, Зои Белл, Ли Хорсли, Джин Джонс, Кит Джеффресон, Крэйг Старк, Белинда Овино, Ченнинг Татум, Брюс Дель Кастилло, Квентин Тарантино

О фильме:
Эта добрая история от Квентина Тарантино начинается в занесенных снегами полях Вайоминга вблизи Скалистых гор спустя два года после окончания Гражданской войны. Знаменитый охотник за головами Джон "Вешатель" Рут галантно сопровождает до ближайшей виселицы некую Дейзи Домергу, беспрестанно демонстрирующую ослепительную улыбку в три зуба. На дороге они подбирают еще двоих случайных попутчиков. Все четверо вынуждены искать укрытие от надвигающегося снежного бурана в галантерейной лавке Минни на горном перевале, где их ожидает целый парк кровавых аттракционов.



Выпущено: США / The Weinstein Company LLC
Продолжительность: 4 x 00:52:00
Озвучивание: Авторское (Д.Есарев)

Файл
Качество: WEB-DLRip 1080p
Видео: 1920x696, ~9500 Кbit/s, 23.976 fps
Аудио #1: Русский, 48 kHz, AC3, 5.1, 640 Kbps | Авторский (Д.Есарев)
Аудио #2: Английский, 48 kHz, AC3, 5.1, 448 kbps | Оригинал
Субтитры: Английские

МедиаИнфо
Формат : Matroska
Версия формата : Version 2
Размер файла : 3,91 Гбайт
Продолжительность : 51 м. 41 с.
Общий поток : 10,8 Мбит/сек
Название фильма : ~V ad~
Дата кодирования : UTC 2019-06-05 15:31:05
Программа кодирования : mkvmerge v6.5.0 ('Isn't she lovely') built on Oct 20 2013 12:50:05
Библиотека кодирования : libebml v1.3.0 + libmatroska v1.4.1
Обложка : Yes
Attachments : cover2.jpg

Видео
Идентификатор : 1
Формат : AVC
Формат/Информация : Advanced Video Codec
Профиль формата : [email protected]
Настройки формата : CABAC / 5 Ref Frames
Параметр CABAC формата : Да
Параметр RefFrames формата : 5 кадров
Идентификатор кодека : V_MPEG4/ISO/AVC
Продолжительность : 51 м. 41 с.
Битрейт : 9737 Кбит/сек
Ширина : 1920 пикселей
Высота : 696 пикселей
Соотношение сторон : 2,759
Режим частоты кадров : Постоянный
Частота кадров : 23,976 (24000/1001) кадра/сек
Цветовое пространство : YUV
Субдискретизация насыщенности : 4:2:0
Битовая глубина : 8 бит
Тип развёртки : Прогрессивная
Бит/(Пиксели*Кадры) : 0.304
Размер потока : 3,44 Гбайт (88%)
Заголовок : ~V~
Библиотека кодирования : x264 core 157 r2969 d4099dd
Настройки программы : cabac=1 / ref=5 / deblock=1:-3:-3 / analyse=0x3:0x133 / me=umh / subme=11 / psy=1 / psy_rd=1.00:0.00 / mixed_ref=1 / me_range=40 / chroma_me=1 / trellis=2 / 8x8dct=1 / cqm=0 / deadzone=21,11 / fast_pskip=0 / chroma_qp_offset=-2 / threads=12 / lookahead_threads=1 / sliced_threads=0 / nr=0 / decimate=0 / interlaced=0 / bluray_compat=0 / constrained_intra=0 / bframes=12 / b_pyramid=2 / b_adapt=2 / b_bias=0 / direct=3 / weightb=1 / open_gop=0 / weightp=2 / keyint=240 / keyint_min=23 / scenecut=40 / intra_refresh=0 / rc=2pass / mbtree=0 / bitrate=9737 / ratetol=1.0 / qcomp=0.70 / qpmin=0 / qpmax=69 / qpstep=4 / cplxblur=20.0 / qblur=0.5 / ip_ratio=1.30 / pb_ratio=1.30 / aq=3:0.70
Язык : Английский
Default : Да
Forced : Нет

Аудио #1
Идентификатор : 2
Формат : AC-3
Формат/Информация : Audio Coding 3
Коммерческое название : Dolby Digital
Идентификатор кодека : A_AC3
Продолжительность : 51 м. 41 с.
Вид битрейта : Постоянный
Битрейт : 640 Кбит/сек
Каналы : 6 каналов
Channel layout : L R C LFE Ls Rs
Частота : 48,0 КГц
Частота кадров : 31,250 кадров/сек (1536 SPF)
Битовая глубина : 16 бит
Метод сжатия : С потерями
Размер потока : 237 Мбайт (6%)
Заголовок : AVO [Д.Есарев]
Язык : Русский
Service Kind : Complete Main
Default : Да
Forced : Нет

Аудио #2
Идентификатор : 3
Формат : AC-3
Формат/Информация : Audio Coding 3
Коммерческое название : Dolby Digital
Идентификатор кодека : A_AC3
Продолжительность : 51 м. 41 с.
Вид битрейта : Постоянный
Битрейт : 448 Кбит/сек
Каналы : 6 каналов
Channel layout : L R C LFE Ls Rs
Частота : 48,0 КГц
Частота кадров : 31,250 кадров/сек (1536 SPF)
Битовая глубина : 16 бит
Метод сжатия : С потерями
Размер потока : 166 Мбайт (4%)
Язык : Английский
Service Kind : Complete Main
Default : Нет
Forced : Нет

Текст
Идентификатор : 4
Формат : UTF-8
Идентификатор кодека : S_TEXT/UTF8
Идентификатор кодека/Информация : UTF-8 Plain Text
Заголовок : SDH
Язык : Английский
Default : Нет
Forced : Нет

Меню
00:00:00.000 : :Opening Credits
00:03:57.313 : :Chapter Two: Minnie's Haberdashery / Галантерея Минни
00:47:20.130 : :Final Credits
Релиз
Перевод расширенной Extended версии доступен благодаря petrena. Работа со звуком - mihailnds
Скриншоты


Сэмпл
Релиз от:

Театральная версия
 

Вложения

  • 40,7 KB Просмотры: 1
    Личеров 0
    Сидеров 0
    Файлов 4
    Объем 15,6 GB

Привет!

Мы группа людей которые решили помочь другим в решении их проблем, а так же пользователям с поиском самых свежих и качественных инфопродуктов. За 4 с небольшим месяца мы создали этот форум на который заходят ежедневно тысячи человек и посещаемость постоянно растёт. Мы создали панель лицензирования для защиты PHP скриптов от воровства и SEO панель для мониторинга наших сайтов и выбора верной стратегии их развития. Мы надеемся что то что мы создали пригодится Вам и возможно Вы поможете нам развиваться и совершенствоваться вместе с Вами.

Статистика форума

Темы
410.572
Сообщения
469.128
Пользователи
86.228
Новый пользователь
ItKristina

Приложения форума для iOS и Android


У ркн там нет власти ;)
Приватные разговоры
Помощь Пользователи
    Вы не присоединились ни к одной комнате.